<?xml version="1.0" standalone="no"?> 
<!DOCTYPE svg PUBLIC "-//W3C//DTD SVG 1.1//EN" "http://www.w3.org/Graphics/SVG/1.1/DTD/svg11.dtd" >
<svg xmlns="http://www.w3.org/2000/svg">
<defs>
  <font id="icons" horiz-adv-x="1220">
    <font-face font-family="icons"
      units-per-em="1200" ascent="1200"
      descent="0" />
    <missing-glyph horiz-adv-x="0" />
    <glyph glyph-name="1-bring-down"
      unicode="&#xF101;"
      horiz-adv-x="1202" d=" M1184 -70H56Q0 -70 0 -18Q0 42 56 42H1184Q1238 42 1238 -18Q1238 -70 1184 -70zM1107 814Q1198 735 1112 651L631 113L146 651Q117 683 117 731Q117 792 152 814Q239 899 316 809L491 613V1227H766V613L941 809Q1018 899 1107 814z" />
    <glyph glyph-name="1-bring-down-1"
      unicode="&#x31;&#x2D;&#x62;&#x72;&#x69;&#x6E;&#x67;&#x2D;&#x64;&#x6F;&#x77;&#x6E;"
      horiz-adv-x="1202" d=" M1184 -70H56Q0 -70 0 -18Q0 42 56 42H1184Q1238 42 1238 -18Q1238 -70 1184 -70zM1107 814Q1198 735 1112 651L631 113L146 651Q117 683 117 731Q117 792 152 814Q239 899 316 809L491 613V1227H766V613L941 809Q1018 899 1107 814z" />
    <glyph glyph-name="1-bring-up"
      unicode="&#xF102;"
      horiz-adv-x="1200" d=" M1184 -70H56Q0 -70 0 -18Q0 42 56 42H1184Q1238 42 1238 -18Q1238 -70 1184 -70zM143 536Q52 615 138 699L619 1237L1104 699Q1133 667 1133 619Q1133 558 1098 536Q1011 451 934 541L759 737V123H484V737L309 541Q232 451 143 536z" />
    <glyph glyph-name="1-bring-up-1"
      unicode="&#x31;&#x2D;&#x62;&#x72;&#x69;&#x6E;&#x67;&#x2D;&#x75;&#x70;"
      horiz-adv-x="1200" d=" M1184 -70H56Q0 -70 0 -18Q0 42 56 42H1184Q1238 42 1238 -18Q1238 -70 1184 -70zM143 536Q52 615 138 699L619 1237L1104 699Q1133 667 1133 619Q1133 558 1098 536Q1011 451 934 541L759 737V123H484V737L309 541Q232 451 143 536z" />
    <glyph glyph-name="1-catalog"
      unicode="&#xF103;"
      horiz-adv-x="1202" d=" M961 179Q765 102 653 -24V739L961 951V179zM319 898Q358 872 434.5 818T551 739V-24Q491 46 384 108Q319 151 241 179V951zM1044 496V895V898H1047Q1054 901 1069.5 907T1089 916H1098V92Q1078 86 844 8L860 26Q935 73 1027 113Q1044 116 1044 134V496zM158 134Q158 116 174 113Q268 73 335 27Q233 73 107 92V916V916Q142 901 158 898V895V806V134zM1159 819H1193V-11Q1072 8 950 -40V-38Q957 -31 985 -11Q1019 11 1087 26Q1100 27 1124 29T1159 31V819zM41 31Q118 22 123 22Q188 11 234 -20L252 -38Q127 8 9 -11V819H41V31z" />
    <glyph glyph-name="1-catalog-1"
      unicode="&#x31;&#x2D;&#x63;&#x61;&#x74;&#x61;&#x6C;&#x6F;&#x67;"
      horiz-adv-x="1202" d=" M961 179Q765 102 653 -24V739L961 951V179zM319 898Q358 872 434.5 818T551 739V-24Q491 46 384 108Q319 151 241 179V951zM1044 496V895V898H1047Q1054 901 1069.5 907T1089 916H1098V92Q1078 86 844 8L860 26Q935 73 1027 113Q1044 116 1044 134V496zM158 134Q158 116 174 113Q268 73 335 27Q233 73 107 92V916V916Q142 901 158 898V895V806V134zM1159 819H1193V-11Q1072 8 950 -40V-38Q957 -31 985 -11Q1019 11 1087 26Q1100 27 1124 29T1159 31V819zM41 31Q118 22 123 22Q188 11 234 -20L252 -38Q127 8 9 -11V819H41V31z" />
    <glyph glyph-name="1-circle-add"
      unicode="&#xF104;"
      horiz-adv-x="1202" d=" M1094 787Q1131 723 1150.5 651T1170 500Q1170 379 1124 272.5T999 86.5T813.5 -39T586 -85T358 -39T171.5 86.5T46 272.5T0 500T46 727.5T171.5 913.5T358 1039T586 1085Q664 1085 736 1065T872 1010Q900 1031 934 1040.5T1003 1042Q1036 1035 1061.5 1016.5T1103.5 972.5T1126.5 916T1126 853Q1123 834 1114.5 817.5T1094 787zM586 29Q683 29 769 66T919 166.5T1020 316T1057 500Q1057 563 1041.5 621T997 730Q967 725 939 731Q925 733 913 738.5T889 751L685 547Q693 531 696 513T695 477Q690 454 677.5 435.5T647 405T607 388.5T563 389Q540 394 522 406.5T492 437T475.5 477T475 522Q480 545 493 563T524 592.5T563.5 608T607 608Q615 606 620.5 604.5T633 601L836 805Q806 851 815 912Q764 940 706.5 955.5T586 971Q488 971 402 934T251.5 833.5T150 684T113 500T150 316T251.5 166.5T402 66T586 29zM1583 865Q1610 865 1610 836Q1610 806 1583 806H1471V696Q1471 668 1443 668T1415 696V806H1304Q1275 806 1275 836Q1275 865 1304 865H1415V975Q1415 1003 1443 1003T1471 975V865H1583z" />
    <glyph glyph-name="1-circle-add-1"
      unicode="&#x31;&#x2D;&#x63;&#x69;&#x72;&#x63;&#x6C;&#x65;&#x2D;&#x61;&#x64;&#x64;"
      horiz-adv-x="1202" d=" M1094 787Q1131 723 1150.5 651T1170 500Q1170 379 1124 272.5T999 86.5T813.5 -39T586 -85T358 -39T171.5 86.5T46 272.5T0 500T46 727.5T171.5 913.5T358 1039T586 1085Q664 1085 736 1065T872 1010Q900 1031 934 1040.5T1003 1042Q1036 1035 1061.5 1016.5T1103.5 972.5T1126.5 916T1126 853Q1123 834 1114.5 817.5T1094 787zM586 29Q683 29 769 66T919 166.5T1020 316T1057 500Q1057 563 1041.5 621T997 730Q967 725 939 731Q925 733 913 738.5T889 751L685 547Q693 531 696 513T695 477Q690 454 677.5 435.5T647 405T607 388.5T563 389Q540 394 522 406.5T492 437T475.5 477T475 522Q480 545 493 563T524 592.5T563.5 608T607 608Q615 606 620.5 604.5T633 601L836 805Q806 851 815 912Q764 940 706.5 955.5T586 971Q488 971 402 934T251.5 833.5T150 684T113 500T150 316T251.5 166.5T402 66T586 29zM1583 865Q1610 865 1610 836Q1610 806 1583 806H1471V696Q1471 668 1443 668T1415 696V806H1304Q1275 806 1275 836Q1275 865 1304 865H1415V975Q1415 1003 1443 1003T1471 975V865H1583z" />
    <glyph glyph-name="1-circle-dashed"
      unicode="&#xF105;"
      horiz-adv-x="1202" d=" M115 537Q110 474 121 412L19 394Q6 467 12 546zM181 745Q166 717 153.5 689T132 630L32 658Q43 695 57.5 730.5T92 798zM146 322Q171 261 207 212L122 152Q99 181 81.5 215T50 284zM332 903Q280 869 237 821L160 890Q209 947 274 990zM270 142Q292 120 317.5 101.5T371 69L322 -24Q287 -5 256.5 17.5T197 66zM1058 665Q1053 676 1048.5 686.5T1039 708Q1062 723 1081.5 743.5T1114 790Q1127 768 1137 746T1156 700zM878 96Q903 115 926.5 135.5T971 181L1049 113Q1025 84 997 58.5T937 11zM1025 258Q1040 286 1051.5 314.5T1072 374L1172 347Q1162 310 1148.5 274.5T1115 207zM536 980Q504 976 474 967.5T415 947L375 1043Q410 1058 447 1068T522 1083zM1185 590Q1197 515 1188 438L1085 449Q1092 511 1082 574zM458 33Q487 23 518 18T581 11L577 -93L541 -90Q512 -87 483.5 -81.5T427 -68zM783 1053Q743 1019 723 970Q700 975 676.5 978.5T630 983L635 1088Q673 1085 710.5 1078T785 1059zM675 17Q707 22 736.5 30T795 52L837 -44Q767 -75 691 -86zM1067 860Q1061 831 1044 807.5T1003.5 768.5T952 747T894 747Q885 749 876.5 751.5T860 758L690 552Q698 536 701.5 517.5T701 480Q697 459 685 442.5T656.5 415.5T620.5 401T580 401T542 417T514.5 445.5T499.5 482T500 523Q504 544 516 560.5T544.5 588T581 602.5T622 602Q627 600 630 599.5T638 597L807 803Q789 828 781 858.5T780 921Q786 950 803 973.5T843.5 1012.5T895.5 1033.5T953 1033Q983 1027 1007 1010T1046 969.5T1067 918T1067 860z" />
    <glyph glyph-name="1-circle-dashed-1"
      unicode="&#x31;&#x2D;&#x63;&#x69;&#x72;&#x63;&#x6C;&#x65;&#x2D;&#x64;&#x61;&#x73;&#x68;&#x65;&#x64;"
      horiz-adv-x="1202" d=" M115 537Q110 474 121 412L19 394Q6 467 12 546zM181 745Q166 717 153.5 689T132 630L32 658Q43 695 57.5 730.5T92 798zM146 322Q171 261 207 212L122 152Q99 181 81.5 215T50 284zM332 903Q280 869 237 821L160 890Q209 947 274 990zM270 142Q292 120 317.5 101.5T371 69L322 -24Q287 -5 256.5 17.5T197 66zM1058 665Q1053 676 1048.5 686.5T1039 708Q1062 723 1081.5 743.5T1114 790Q1127 768 1137 746T1156 700zM878 96Q903 115 926.5 135.5T971 181L1049 113Q1025 84 997 58.5T937 11zM1025 258Q1040 286 1051.5 314.5T1072 374L1172 347Q1162 310 1148.5 274.5T1115 207zM536 980Q504 976 474 967.5T415 947L375 1043Q410 1058 447 1068T522 1083zM1185 590Q1197 515 1188 438L1085 449Q1092 511 1082 574zM458 33Q487 23 518 18T581 11L577 -93L541 -90Q512 -87 483.5 -81.5T427 -68zM783 1053Q743 1019 723 970Q700 975 676.5 978.5T630 983L635 1088Q673 1085 710.5 1078T785 1059zM675 17Q707 22 736.5 30T795 52L837 -44Q767 -75 691 -86zM1067 860Q1061 831 1044 807.5T1003.5 768.5T952 747T894 747Q885 749 876.5 751.5T860 758L690 552Q698 536 701.5 517.5T701 480Q697 459 685 442.5T656.5 415.5T620.5 401T580 401T542 417T514.5 445.5T499.5 482T500 523Q504 544 516 560.5T544.5 588T581 602.5T622 602Q627 600 630 599.5T638 597L807 803Q789 828 781 858.5T780 921Q786 950 803 973.5T843.5 1012.5T895.5 1033.5T953 1033Q983 1027 1007 1010T1046 969.5T1067 918T1067 860z" />
    <glyph glyph-name="1-circle"
      unicode="&#xF106;"
      horiz-adv-x="1202" d=" M1110 787Q1147 723 1166.5 651T1186 500Q1186 379 1140 272.5T1015 86.5T829.5 -39T602 -85T374 -39T187.5 86.5T62 272.5T16 500T62 727.5T187.5 913.5T374 1039T602 1085Q680 1085 752 1065T888 1010Q916 1031 950 1040.5T1019 1042Q1052 1035 1077.5 1016.5T1119.5 972.5T1142.5 916T1142 853Q1139 834 1130.5 817.5T1110 787zM602 29Q699 29 785 66T935 166.5T1036 316T1073 500Q1073 563 1057.5 621T1013 730Q983 725 955 731Q941 733 929 738.5T905 751L701 547Q709 531 712 513T711 477Q706 454 693.5 435.5T663 405T623 388.5T579 389Q556 394 538 406.5T508 437T491.5 477T491 522Q496 545 509 563T540 592.5T579.5 608T623 608Q631 606 636.5 604.5T649 601L852 805Q822 851 831 912Q780 940 722.5 955.5T602 971Q504 971 418 934T267.5 833.5T166 684T129 500T166 316T267.5 166.5T418 66T602 29z" />
    <glyph glyph-name="1-circle-1"
      unicode="&#x31;&#x2D;&#x63;&#x69;&#x72;&#x63;&#x6C;&#x65;"
      horiz-adv-x="1202" d=" M1110 787Q1147 723 1166.5 651T1186 500Q1186 379 1140 272.5T1015 86.5T829.5 -39T602 -85T374 -39T187.5 86.5T62 272.5T16 500T62 727.5T187.5 913.5T374 1039T602 1085Q680 1085 752 1065T888 1010Q916 1031 950 1040.5T1019 1042Q1052 1035 1077.5 1016.5T1119.5 972.5T1142.5 916T1142 853Q1139 834 1130.5 817.5T1110 787zM602 29Q699 29 785 66T935 166.5T1036 316T1073 500Q1073 563 1057.5 621T1013 730Q983 725 955 731Q941 733 929 738.5T905 751L701 547Q709 531 712 513T711 477Q706 454 693.5 435.5T663 405T623 388.5T579 389Q556 394 538 406.5T508 437T491.5 477T491 522Q496 545 509 563T540 592.5T579.5 608T623 608Q631 606 636.5 604.5T649 601L852 805Q822 851 831 912Q780 940 722.5 955.5T602 971Q504 971 418 934T267.5 833.5T166 684T129 500T166 316T267.5 166.5T418 66T602 29z" />
    <glyph glyph-name="1-close"
      unicode="&#xF107;"
      horiz-adv-x="1200" d=" M1137 5Q1180 -36 1137 -69Q1127 -86 1103 -86Q1078 -86 1064 -69L599 392L133 -69Q119 -86 94 -86Q70 -86 59 -69Q19 -36 59 5L519 469L59 936Q19 975 59 1010Q94 1052 133 1010L599 549L1064 1010Q1103 1052 1137 1010Q1180 975 1137 936L676 469L1137 5V5z" />
    <glyph glyph-name="1-close-1"
      unicode="&#x31;&#x2D;&#x63;&#x6C;&#x6F;&#x73;&#x65;"
      horiz-adv-x="1200" d=" M1137 5Q1180 -36 1137 -69Q1127 -86 1103 -86Q1078 -86 1064 -69L599 392L133 -69Q119 -86 94 -86Q70 -86 59 -69Q19 -36 59 5L519 469L59 936Q19 975 59 1010Q94 1052 133 1010L599 549L1064 1010Q1103 1052 1137 1010Q1180 975 1137 936L676 469L1137 5V5z" />
    <glyph glyph-name="1-compass-alt"
      unicode="&#xF108;"
      horiz-adv-x="1202" d=" M823 656L667 382L392 222L549 500zM642 409Q677 438 642 475Q611 503 576 475Q539 438 576 409Q611 372 642 409zM680 1008Q889 977 1032 816.5T1175 441Q1175 202 1006 34.5T601.5 -133T196.5 34.5T27 441Q27 656 170 816.5T522 1008Q502 1035 502 1068Q502 1108 530.5 1138T602 1168T674.5 1138T704 1068Q704 1038 680 1008zM601 1108Q562 1108 562 1068Q562 1026 601 1026Q645 1026 645 1068Q645 1108 601 1108zM148 441Q148 253 282 119.5T602 -14T922.5 119.5T1057 441Q1057 626 922.5 761T602 896T282 761T148 441z" />
    <glyph glyph-name="1-compass-alt-1"
      unicode="&#x31;&#x2D;&#x63;&#x6F;&#x6D;&#x70;&#x61;&#x73;&#x73;&#x2D;&#x61;&#x6C;&#x74;"
      horiz-adv-x="1202" d=" M823 656L667 382L392 222L549 500zM642 409Q677 438 642 475Q611 503 576 475Q539 438 576 409Q611 372 642 409zM680 1008Q889 977 1032 816.5T1175 441Q1175 202 1006 34.5T601.5 -133T196.5 34.5T27 441Q27 656 170 816.5T522 1008Q502 1035 502 1068Q502 1108 530.5 1138T602 1168T674.5 1138T704 1068Q704 1038 680 1008zM601 1108Q562 1108 562 1068Q562 1026 601 1026Q645 1026 645 1068Q645 1108 601 1108zM148 441Q148 253 282 119.5T602 -14T922.5 119.5T1057 441Q1057 626 922.5 761T602 896T282 761T148 441z" />
    <glyph glyph-name="1-compass-arrow"
      unicode="&#xF109;"
      horiz-adv-x="1200" d=" M398 718L1214 1116L816 299L398 718V718zM398 718L0 -99L816 299L398 718V718zM415 618L716 316L127 29L415 618V618z" />
    <glyph glyph-name="1-compass-arrow-1"
      unicode="&#x31;&#x2D;&#x63;&#x6F;&#x6D;&#x70;&#x61;&#x73;&#x73;&#x2D;&#x61;&#x72;&#x72;&#x6F;&#x77;"
      horiz-adv-x="1200" d=" M398 718L1214 1116L816 299L398 718V718zM398 718L0 -99L816 299L398 718V718zM415 618L716 316L127 29L415 618V618z" />
    <glyph glyph-name="1-compass"
      unicode="&#xF10A;"
      horiz-adv-x="1200" d=" M300 202L686 412L896 800L509 590zM377 280L523 541L638 423zM598 871Q615 871 615 887V924Q615 941 598 941Q582 941 582 924V887Q582 871 598 871zM598 129Q582 129 582 112V75Q582 68 586.5 63T598 58Q606 58 610.5 63T615 75V112Q615 129 598 129zM1020 516H983Q966 516 966 500Q966 483 983 483H1020Q1026 483 1031.5 487.5T1037 500Q1037 507 1031.5 511.5T1020 516zM213 516H176Q169 516 164 511.5T159 500Q159 492 164 487.5T176 483H213Q220 483 225 487.5T230 500Q230 507 225 511.5T213 516zM598 -78Q478 -78 373 -32.5T189 92T64.5 276T19 501T64.5 726T189 910T373 1034.5T598 1080Q717 1080 822.5 1034.5T1007 910T1132 726T1178 501T1132 276T1007 92T822.5 -32.5T598 -78zM598 973Q500 973 414.5 936T264.5 834.5T163 684T126 501Q126 403 163 317.5T264.5 167.5T414.5 66T598 29Q695 29 781 66T931.5 167.5T1033 317.5T1070 501Q1070 598 1033 684T931.5 834.5T781 936T598 973z" />
    <glyph glyph-name="1-compass-1"
      unicode="&#x31;&#x2D;&#x63;&#x6F;&#x6D;&#x70;&#x61;&#x73;&#x73;"
      horiz-adv-x="1200" d=" M300 202L686 412L896 800L509 590zM377 280L523 541L638 423zM598 871Q615 871 615 887V924Q615 941 598 941Q582 941 582 924V887Q582 871 598 871zM598 129Q582 129 582 112V75Q582 68 586.5 63T598 58Q606 58 610.5 63T615 75V112Q615 129 598 129zM1020 516H983Q966 516 966 500Q966 483 983 483H1020Q1026 483 1031.5 487.5T1037 500Q1037 507 1031.5 511.5T1020 516zM213 516H176Q169 516 164 511.5T159 500Q159 492 164 487.5T176 483H213Q220 483 225 487.5T230 500Q230 507 225 511.5T213 516zM598 -78Q478 -78 373 -32.5T189 92T64.5 276T19 501T64.5 726T189 910T373 1034.5T598 1080Q717 1080 822.5 1034.5T1007 910T1132 726T1178 501T1132 276T1007 92T822.5 -32.5T598 -78zM598 973Q500 973 414.5 936T264.5 834.5T163 684T126 501Q126 403 163 317.5T264.5 167.5T414.5 66T598 29Q695 29 781 66T931.5 167.5T1033 317.5T1070 501Q1070 598 1033 684T931.5 834.5T781 936T598 973z" />
    <glyph glyph-name="1-drag"
      unicode="&#xF10B;"
      horiz-adv-x="1200" d=" M370 513Q370 536 390 549Q404 563 425 562.5T462 545L598 394L737 545Q752 562 773 562.5T810 549Q827 534 828 513T813 477L598 240L386 477Q370 492 370 513z" />
    <glyph glyph-name="1-drag-1"
      unicode="&#x31;&#x2D;&#x64;&#x72;&#x61;&#x67;"
      horiz-adv-x="1200" d=" M370 513Q370 536 390 549Q404 563 425 562.5T462 545L598 394L737 545Q752 562 773 562.5T810 549Q827 534 828 513T813 477L598 240L386 477Q370 492 370 513z" />
    <glyph glyph-name="1-full-screen"
      unicode="&#xF10C;"
      horiz-adv-x="1200" d=" M601 590Q573 590 548.5 579.5T505.5 550.5T476 507T465 454T476 401.5T505.5 359T548.5 330.5T601 320T653.5 330.5T696 359T724.5 401.5T735 454T724.5 507T696 550.5T653.5 579.5T601 590zM1121 260Q1103 260 1089 246.5T1075 213V80L910 246Q897 259 878 259T847 246Q833 232 833 213T847 181L1011 16H877Q858 16 844 2.5T830 -29Q830 -49 844 -61.5T877 -74H1165V213Q1165 233 1152.5 246.5T1121 260zM1121 650Q1103 650 1089 663.5T1075 696V831L910 665Q897 652 878 652T847 665Q833 679 833 697.5T847 728L1011 893H877Q858 893 844 907T830 940Q830 958 844 971T877 984H1165V696Q1165 677 1152.5 663.5T1121 650zM81 260Q100 260 113.5 246.5T127 213V80L291 246Q305 259 323.5 259T355 246Q369 232 369 213T355 181L190 16H326Q344 16 357 2.5T370 -29Q370 -49 357 -61.5T326 -74H35V213Q35 233 48.5 246.5T81 260zM81 650Q100 650 113.5 663.5T127 696V831L291 665Q305 652 323.5 652T355 665Q369 679 369 697.5T355 728L190 893H326Q344 893 357 907T370 940Q370 958 357 971T326 984H35V696Q35 677 48.5 663.5T81 650z" />
    <glyph glyph-name="1-full-screen-1"
      unicode="&#x31;&#x2D;&#x66;&#x75;&#x6C;&#x6C;&#x2D;&#x73;&#x63;&#x72;&#x65;&#x65;&#x6E;"
      horiz-adv-x="1200" d=" M601 590Q573 590 548.5 579.5T505.5 550.5T476 507T465 454T476 401.5T505.5 359T548.5 330.5T601 320T653.5 330.5T696 359T724.5 401.5T735 454T724.5 507T696 550.5T653.5 579.5T601 590zM1121 260Q1103 260 1089 246.5T1075 213V80L910 246Q897 259 878 259T847 246Q833 232 833 213T847 181L1011 16H877Q858 16 844 2.5T830 -29Q830 -49 844 -61.5T877 -74H1165V213Q1165 233 1152.5 246.5T1121 260zM1121 650Q1103 650 1089 663.5T1075 696V831L910 665Q897 652 878 652T847 665Q833 679 833 697.5T847 728L1011 893H877Q858 893 844 907T830 940Q830 958 844 971T877 984H1165V696Q1165 677 1152.5 663.5T1121 650zM81 260Q100 260 113.5 246.5T127 213V80L291 246Q305 259 323.5 259T355 246Q369 232 369 213T355 181L190 16H326Q344 16 357 2.5T370 -29Q370 -49 357 -61.5T326 -74H35V213Q35 233 48.5 246.5T81 260zM81 650Q100 650 113.5 663.5T127 696V831L291 665Q305 652 323.5 652T355 665Q369 679 369 697.5T355 728L190 893H326Q344 893 357 907T370 940Q370 958 357 971T326 984H35V696Q35 677 48.5 663.5T81 650z" />
    <glyph glyph-name="1-group-add"
      unicode="&#xF10D;"
      horiz-adv-x="1202" d=" M373 410Q335 410 301 429.5T242 479.5T202.5 548.5T188 626Q188 664 202.5 697.5T242 756T301 795.5T373 810Q408 810 440 797Q433 769 433 736Q433 675 457 615.5T524 508Q499 465 460 437.5T373 410zM900 494Q949 542 977 607T1005 736Q1005 755 1002.5 771T996 803Q1017 810 1043 810Q1081 810 1114 795.5T1172 756T1211 697.5T1225 626Q1225 587 1211 548.5T1172 479.5T1114 429.5T1043 410Q999 410 962.5 433.5T900 494zM364 291Q290 234 250 161.5T210 16H0Q0 59 25 107T97.5 195T212.5 262T364 291zM1075 290Q1154 285 1217 257T1324 189T1391.5 103T1415 16H1228Q1228 89 1187.5 161T1075 290zM719 481Q668 481 625.5 508.5T553 579Q528 614 514 654.5T500 736Q500 743 500.5 747.5T502 757Q506 799 524.5 835T572 897.5T638.5 939.5T719 955Q759 955 795.5 941T860.5 902.5T908.5 844.5T934 772Q937 757 937 736Q937 689 919 643T869 559Q840 523 802 502T719 481zM961 285Q1009 259 1046 226.5T1108.5 158.5T1147 86.5T1160 16H746H669H278Q278 50 290.5 86T328 157T388.5 224T471 281Q522 308 584.5 325T719 342Q790 342 850.5 326T961 285zM1453 924Q1466 924 1476.5 913.5T1487 889T1476.5 864.5T1453 854H1372V774Q1372 761 1362.5 751T1339 741Q1324 741 1314.5 751T1305 774V854H1223Q1209 854 1199 864.5T1189 889T1199 913.5T1223 924H1305V1005Q1305 1019 1314.5 1028T1339 1037Q1353 1037 1362.5 1028T1372 1005V924H1453z" />
    <glyph glyph-name="1-group-add-1"
      unicode="&#x31;&#x2D;&#x67;&#x72;&#x6F;&#x75;&#x70;&#x2D;&#x61;&#x64;&#x64;"
      horiz-adv-x="1202" d=" M373 410Q335 410 301 429.5T242 479.5T202.5 548.5T188 626Q188 664 202.5 697.5T242 756T301 795.5T373 810Q408 810 440 797Q433 769 433 736Q433 675 457 615.5T524 508Q499 465 460 437.5T373 410zM900 494Q949 542 977 607T1005 736Q1005 755 1002.5 771T996 803Q1017 810 1043 810Q1081 810 1114 795.5T1172 756T1211 697.5T1225 626Q1225 587 1211 548.5T1172 479.5T1114 429.5T1043 410Q999 410 962.5 433.5T900 494zM364 291Q290 234 250 161.5T210 16H0Q0 59 25 107T97.5 195T212.5 262T364 291zM1075 290Q1154 285 1217 257T1324 189T1391.5 103T1415 16H1228Q1228 89 1187.5 161T1075 290zM719 481Q668 481 625.5 508.5T553 579Q528 614 514 654.5T500 736Q500 743 500.5 747.5T502 757Q506 799 524.5 835T572 897.5T638.5 939.5T719 955Q759 955 795.5 941T860.5 902.5T908.5 844.5T934 772Q937 757 937 736Q937 689 919 643T869 559Q840 523 802 502T719 481zM961 285Q1009 259 1046 226.5T1108.5 158.5T1147 86.5T1160 16H746H669H278Q278 50 290.5 86T328 157T388.5 224T471 281Q522 308 584.5 325T719 342Q790 342 850.5 326T961 285zM1453 924Q1466 924 1476.5 913.5T1487 889T1476.5 864.5T1453 854H1372V774Q1372 761 1362.5 751T1339 741Q1324 741 1314.5 751T1305 774V854H1223Q1209 854 1199 864.5T1189 889T1199 913.5T1223 924H1305V1005Q1305 1019 1314.5 1028T1339 1037Q1353 1037 1362.5 1028T1372 1005V924H1453z" />
    <glyph glyph-name="1-group-cancel"
      unicode="&#xF10E;"
      horiz-adv-x="1200" d=" M373 410Q335 410 301 429.5T242 479.5T202.5 548.5T188 626Q188 664 202.5 697.5T242 756T301 795.5T373 810Q408 810 440 797Q433 769 433 736Q433 675 457 615.5T524 508Q499 465 460 437.5T373 410zM900 494Q949 542 977 607T1005 736Q1005 755 1002.5 771T996 803Q1017 810 1043 810Q1081 810 1114 795.5T1172 756T1211 697.5T1225 626Q1225 587 1211 548.5T1172 479.5T1114 429.5T1043 410Q999 410 962.5 433.5T900 494zM364 291Q290 234 250 161.5T210 16H0Q0 59 25 107T97.5 195T212.5 262T364 291zM1075 290Q1154 285 1217 257T1324 189T1391.5 103T1415 16H1228Q1228 89 1187.5 161T1075 290zM719 481Q668 481 625.5 508.5T553 579Q528 614 514 654.5T500 736Q500 743 500.5 747.5T502 757Q506 799 524.5 835T572 897.5T638.5 939.5T719 955Q759 955 795.5 941T860.5 902.5T908.5 844.5T934 772Q937 757 937 736Q937 689 919 643T869 559Q840 523 802 502T719 481zM961 285Q1009 259 1046 226.5T1108.5 158.5T1147 86.5T1160 16H746H669H278Q278 50 290.5 86T328 157T388.5 224T471 281Q522 308 584.5 325T719 342Q790 342 850.5 326T961 285zM1445 855H1224Q1210 855 1200 865T1190 889T1200 913T1224 923H1445Q1460 923 1470 913T1480 889T1470 865T1445 855z" />
    <glyph glyph-name="1-group-cancel-1"
      unicode="&#x31;&#x2D;&#x67;&#x72;&#x6F;&#x75;&#x70;&#x2D;&#x63;&#x61;&#x6E;&#x63;&#x65;&#x6C;"
      horiz-adv-x="1200" d=" M373 410Q335 410 301 429.5T242 479.5T202.5 548.5T188 626Q188 664 202.5 697.5T242 756T301 795.5T373 810Q408 810 440 797Q433 769 433 736Q433 675 457 615.5T524 508Q499 465 460 437.5T373 410zM900 494Q949 542 977 607T1005 736Q1005 755 1002.5 771T996 803Q1017 810 1043 810Q1081 810 1114 795.5T1172 756T1211 697.5T1225 626Q1225 587 1211 548.5T1172 479.5T1114 429.5T1043 410Q999 410 962.5 433.5T900 494zM364 291Q290 234 250 161.5T210 16H0Q0 59 25 107T97.5 195T212.5 262T364 291zM1075 290Q1154 285 1217 257T1324 189T1391.5 103T1415 16H1228Q1228 89 1187.5 161T1075 290zM719 481Q668 481 625.5 508.5T553 579Q528 614 514 654.5T500 736Q500 743 500.5 747.5T502 757Q506 799 524.5 835T572 897.5T638.5 939.5T719 955Q759 955 795.5 941T860.5 902.5T908.5 844.5T934 772Q937 757 937 736Q937 689 919 643T869 559Q840 523 802 502T719 481zM961 285Q1009 259 1046 226.5T1108.5 158.5T1147 86.5T1160 16H746H669H278Q278 50 290.5 86T328 157T388.5 224T471 281Q522 308 584.5 325T719 342Q790 342 850.5 326T961 285zM1445 855H1224Q1210 855 1200 865T1190 889T1200 913T1224 923H1445Q1460 923 1470 913T1480 889T1470 865T1445 855z" />
    <glyph glyph-name="1-group-mod"
      unicode="&#xF10F;"
      horiz-adv-x="1201" d=" M353 -2L171 46L75 70V887L232 847L353 815V-2zM962 510Q1075 680 1123 824L1126 822V3L967 46L838 77V587Q849 570 864 544T888 510L926 461zM796 935Q796 989 835 1026T927.5 1063T1019 1024T1057 935Q1057 836 926 615Q796 817 796 935zM926 852Q989 852 989 913.5T926 975Q900 975 880 958T860 914T880 869.5T926 852zM716 887Q718 833 752 753V77L442 -2V815z" />
    <glyph glyph-name="1-group-mod-1"
      unicode="&#x31;&#x2D;&#x67;&#x72;&#x6F;&#x75;&#x70;&#x2D;&#x6D;&#x6F;&#x64;"
      horiz-adv-x="1201" d=" M353 -2L171 46L75 70V887L232 847L353 815V-2zM962 510Q1075 680 1123 824L1126 822V3L967 46L838 77V587Q849 570 864 544T888 510L926 461zM796 935Q796 989 835 1026T927.5 1063T1019 1024T1057 935Q1057 836 926 615Q796 817 796 935zM926 852Q989 852 989 913.5T926 975Q900 975 880 958T860 914T880 869.5T926 852zM716 887Q718 833 752 753V77L442 -2V815z" />
    <glyph glyph-name="1-group"
      unicode="&#xF110;"
      horiz-adv-x="1202" d=" M372 407Q334 407 300.5 426T242 476T202.5 545T188 621T202.5 693T242 752T300.5 791.5T372 806Q389 806 405.5 802T436 793Q434 778 432 763.5T430 733Q430 673 454 612.5T521 505Q496 463 457 435T372 407zM895 492Q943 540 971 603.5T999 733Q999 750 996.5 766.5T991 799Q1002 802 1013.5 804T1037 806Q1075 806 1108.5 791.5T1166.5 752T1205.5 693T1220 621T1205.5 545T1166.5 476T1108.5 426T1037 407Q994 407 957.5 430.5T895 492zM361 289Q289 232 249 160T209 16H0Q0 59 25 106.5T97 194T211 260.5T361 289zM1069 288Q1147 283 1210 255T1317 188T1384.5 103T1408 16H1220Q1220 88 1180.5 159.5T1069 288zM715 478Q665 478 622 506T550 576Q525 611 511 651.5T497 733Q497 738 498 743T499 754Q503 795 521 831T568 893.5T634.5 935.5T715 951Q755 951 791 937T855.5 898.5T903 840.5T928 769Q930 760 930.5 751T931 733Q931 686 913 639.5T864 556Q835 521 796.5 499.5T715 478zM956 282Q1003 257 1039.5 225T1101.5 158T1140.5 86.5T1154 16H742H666H275Q275 49 288 85T325.5 156T386 222.5T467 279Q518 307 580 323.5T715 340Q785 340 845 324T956 282z" />
    <glyph glyph-name="1-group-1"
      unicode="&#x31;&#x2D;&#x67;&#x72;&#x6F;&#x75;&#x70;"
      horiz-adv-x="1202" d=" M372 407Q334 407 300.5 426T242 476T202.5 545T188 621T202.5 693T242 752T300.5 791.5T372 806Q389 806 405.5 802T436 793Q434 778 432 763.5T430 733Q430 673 454 612.5T521 505Q496 463 457 435T372 407zM895 492Q943 540 971 603.5T999 733Q999 750 996.5 766.5T991 799Q1002 802 1013.5 804T1037 806Q1075 806 1108.5 791.5T1166.5 752T1205.5 693T1220 621T1205.5 545T1166.5 476T1108.5 426T1037 407Q994 407 957.5 430.5T895 492zM361 289Q289 232 249 160T209 16H0Q0 59 25 106.5T97 194T211 260.5T361 289zM1069 288Q1147 283 1210 255T1317 188T1384.5 103T1408 16H1220Q1220 88 1180.5 159.5T1069 288zM715 478Q665 478 622 506T550 576Q525 611 511 651.5T497 733Q497 738 498 743T499 754Q503 795 521 831T568 893.5T634.5 935.5T715 951Q755 951 791 937T855.5 898.5T903 840.5T928 769Q930 760 930.5 751T931 733Q931 686 913 639.5T864 556Q835 521 796.5 499.5T715 478zM956 282Q1003 257 1039.5 225T1101.5 158T1140.5 86.5T1154 16H742H666H275Q275 49 288 85T325.5 156T386 222.5T467 279Q518 307 580 323.5T715 340Q785 340 845 324T956 282z" />
    <glyph glyph-name="1-layer"
      unicode="&#xF111;"
      horiz-adv-x="1200" d=" M1144 699L659 194L18 517L502 1021zM686 -56L26 280L119 364L663 93L1068 519L1182 456z" />
    <glyph glyph-name="1-layer-1"
      unicode="&#x31;&#x2D;&#x6C;&#x61;&#x79;&#x65;&#x72;"
      horiz-adv-x="1200" d=" M1144 699L659 194L18 517L502 1021zM686 -56L26 280L119 364L663 93L1068 519L1182 456z" />
    <glyph glyph-name="1-line-add"
      unicode="&#xF112;"
      horiz-adv-x="1200" d=" M1268 991Q1268 964 1259 939.5T1234 895.5T1196.5 862T1150 842L1063 207Q1098 187 1119.5 152T1141 73Q1141 41 1129 13.5T1096.5 -35T1048.5 -68T989 -80T929.5 -68T881.5 -35T849 13.5T837 73Q837 115 859 151L438 688Q428 685 417.5 682.5T396 680L249 271Q274 250 289 219.5T304 154Q304 122 292 94T259.5 45T211.5 12T152 0T92.5 12T44.5 45T12 94T0 154Q0 184 11.5 211T42.5 258.5T88.5 291T145 305L295 718Q270 739 255.5 768.5T241 833Q241 864 253 892T285.5 941T334 974T394 986Q425 986 453 974T501.5 941T534 892T546 833Q546 812 540 792T524 755L944 219Q949 219 955 221L1042 858Q1007 877 985.5 912T964 991Q964 1022 976 1049.5T1008.5 1098T1056.5 1131T1116 1143T1175.5 1131T1223.5 1098T1256 1049.5T1268 991zM1668 885Q1695 885 1695 856Q1695 826 1668 826H1556V716Q1556 688 1528 688T1500 716V826H1389Q1360 826 1360 856Q1360 885 1389 885H1500V995Q1500 1023 1528 1023T1556 995V885H1668z" />
    <glyph glyph-name="1-line-add-1"
      unicode="&#x31;&#x2D;&#x6C;&#x69;&#x6E;&#x65;&#x2D;&#x61;&#x64;&#x64;"
      horiz-adv-x="1200" d=" M1268 991Q1268 964 1259 939.5T1234 895.5T1196.5 862T1150 842L1063 207Q1098 187 1119.5 152T1141 73Q1141 41 1129 13.5T1096.5 -35T1048.5 -68T989 -80T929.5 -68T881.5 -35T849 13.5T837 73Q837 115 859 151L438 688Q428 685 417.5 682.5T396 680L249 271Q274 250 289 219.5T304 154Q304 122 292 94T259.5 45T211.5 12T152 0T92.5 12T44.5 45T12 94T0 154Q0 184 11.5 211T42.5 258.5T88.5 291T145 305L295 718Q270 739 255.5 768.5T241 833Q241 864 253 892T285.5 941T334 974T394 986Q425 986 453 974T501.5 941T534 892T546 833Q546 812 540 792T524 755L944 219Q949 219 955 221L1042 858Q1007 877 985.5 912T964 991Q964 1022 976 1049.5T1008.5 1098T1056.5 1131T1116 1143T1175.5 1131T1223.5 1098T1256 1049.5T1268 991zM1668 885Q1695 885 1695 856Q1695 826 1668 826H1556V716Q1556 688 1528 688T1500 716V826H1389Q1360 826 1360 856Q1360 885 1389 885H1500V995Q1500 1023 1528 1023T1556 995V885H1668z" />
    <glyph glyph-name="1-line-dashed"
      unicode="&#xF113;"
      horiz-adv-x="1202" d=" M266 645Q311 616 367 608L337 529L239 564zM271 345Q249 359 224 368.5T171 380L204 471L304 436zM539 554L481 626Q506 638 527.5 655T565 694L622 620zM768 436L683 368L601 473L685 541zM888 283Q864 270 842 253T803 215L746 288L830 354zM1021 779Q1041 772 1062 767.5T1105 763H1117L1129 764L1116 687L1012 700zM1086 462L981 477L997 605L1104 591zM1062 286Q1042 294 1022 298T980 302H967L955 301L967 382L1074 365zM391 980Q422 980 449.5 968T497.5 936T530 888T542 829Q542 799 530 772T497.5 724.5T449.5 692T391 680Q359 680 332 692T284.5 724.5T252.5 772T241 829Q241 860 252.5 888T284.5 936T332 968T391 980zM1253 986Q1253 955 1241.5 928T1210 880.5T1163 848.5T1105 837Q1073 837 1045.5 848.5T998 880.5T966 928T954 986T966 1044.5T998 1092.5T1045.5 1124.5T1105 1136Q1136 1136 1163 1124.5T1210 1092.5T1241.5 1044.5T1253 986zM827 79Q827 110 839 137.5T871.5 185.5T920 218T980 230Q1011 230 1038 218T1085.5 185.5T1117.5 137.5T1129 79T1117.5 20.5T1085.5 -27T1038 -59T980 -71Q948 -71 920 -59T871.5 -27T839 20.5T827 79zM151 307Q183 307 210.5 295.5T258.5 263.5T290.5 215.5T302 156Q302 125 290.5 98T258.5 50.5T210.5 18.5T151 7Q120 7 92.5 18.5T44.5 50.5T12 98T0 156Q0 188 12 215.5T44.5 263.5T92.5 295.5T151 307z" />
    <glyph glyph-name="1-line-dashed-1"
      unicode="&#x31;&#x2D;&#x6C;&#x69;&#x6E;&#x65;&#x2D;&#x64;&#x61;&#x73;&#x68;&#x65;&#x64;"
      horiz-adv-x="1202" d=" M266 645Q311 616 367 608L337 529L239 564zM271 345Q249 359 224 368.5T171 380L204 471L304 436zM539 554L481 626Q506 638 527.5 655T565 694L622 620zM768 436L683 368L601 473L685 541zM888 283Q864 270 842 253T803 215L746 288L830 354zM1021 779Q1041 772 1062 767.5T1105 763H1117L1129 764L1116 687L1012 700zM1086 462L981 477L997 605L1104 591zM1062 286Q1042 294 1022 298T980 302H967L955 301L967 382L1074 365zM391 980Q422 980 449.5 968T497.5 936T530 888T542 829Q542 799 530 772T497.5 724.5T449.5 692T391 680Q359 680 332 692T284.5 724.5T252.5 772T241 829Q241 860 252.5 888T284.5 936T332 968T391 980zM1253 986Q1253 955 1241.5 928T1210 880.5T1163 848.5T1105 837Q1073 837 1045.5 848.5T998 880.5T966 928T954 986T966 1044.5T998 1092.5T1045.5 1124.5T1105 1136Q1136 1136 1163 1124.5T1210 1092.5T1241.5 1044.5T1253 986zM827 79Q827 110 839 137.5T871.5 185.5T920 218T980 230Q1011 230 1038 218T1085.5 185.5T1117.5 137.5T1129 79T1117.5 20.5T1085.5 -27T1038 -59T980 -71Q948 -71 920 -59T871.5 -27T839 20.5T827 79zM151 307Q183 307 210.5 295.5T258.5 263.5T290.5 215.5T302 156Q302 125 290.5 98T258.5 50.5T210.5 18.5T151 7Q120 7 92.5 18.5T44.5 50.5T12 98T0 156Q0 188 12 215.5T44.5 263.5T92.5 295.5T151 307z" />
    <glyph glyph-name="1-line"
      unicode="&#xF114;"
      horiz-adv-x="1202" d=" M1268 991Q1268 964 1259 939.5T1234 895.5T1196.5 862T1150 842L1063 207Q1098 187 1119.5 152T1141 73Q1141 41 1129 13.5T1096.5 -35T1048.5 -68T989 -80T929.5 -68T881.5 -35T849 13.5T837 73Q837 115 859 151L438 688Q428 685 417.5 682.5T396 680L249 271Q274 250 289 219.5T304 154Q304 122 292 94T259.5 45T211.5 12T152 0T92.5 12T44.5 45T12 94T0 154Q0 184 11.5 211T42.5 258.5T88.5 291T145 305L295 718Q270 739 255.5 768.5T241 833Q241 864 253 892T285.5 941T334 974T394 986Q425 986 453 974T501.5 941T534 892T546 833Q546 812 540 792T524 755L944 219Q949 219 955 221L1042 858Q1007 877 985.5 912T964 991Q964 1022 976 1049.5T1008.5 1098T1056.5 1131T1116 1143T1175.5 1131T1223.5 1098T1256 1049.5T1268 991z" />
    <glyph glyph-name="1-line-1"
      unicode="&#x31;&#x2D;&#x6C;&#x69;&#x6E;&#x65;"
      horiz-adv-x="1202" d=" M1268 991Q1268 964 1259 939.5T1234 895.5T1196.5 862T1150 842L1063 207Q1098 187 1119.5 152T1141 73Q1141 41 1129 13.5T1096.5 -35T1048.5 -68T989 -80T929.5 -68T881.5 -35T849 13.5T837 73Q837 115 859 151L438 688Q428 685 417.5 682.5T396 680L249 271Q274 250 289 219.5T304 154Q304 122 292 94T259.5 45T211.5 12T152 0T92.5 12T44.5 45T12 94T0 154Q0 184 11.5 211T42.5 258.5T88.5 291T145 305L295 718Q270 739 255.5 768.5T241 833Q241 864 253 892T285.5 941T334 974T394 986Q425 986 453 974T501.5 941T534 892T546 833Q546 812 540 792T524 755L944 219Q949 219 955 221L1042 858Q1007 877 985.5 912T964 991Q964 1022 976 1049.5T1008.5 1098T1056.5 1131T1116 1143T1175.5 1131T1223.5 1098T1256 1049.5T1268 991z" />
    <glyph glyph-name="1-map"
      unicode="&#xF115;"
      horiz-adv-x="1201" d=" M353 -2L171 46L75 70V887L232 847L353 815V-2zM962 510Q1075 680 1123 824L1126 822V3L967 46L838 77V587Q849 570 864 544T888 510L926 461zM796 935Q796 989 835 1026T927.5 1063T1019 1024T1057 935Q1057 836 926 615Q796 817 796 935zM926 852Q989 852 989 913.5T926 975Q900 975 880 958T860 914T880 869.5T926 852zM716 887Q718 833 752 753V77L442 -2V815z" />
    <glyph glyph-name="1-map-1"
      unicode="&#x31;&#x2D;&#x6D;&#x61;&#x70;"
      horiz-adv-x="1201" d=" M353 -2L171 46L75 70V887L232 847L353 815V-2zM962 510Q1075 680 1123 824L1126 822V3L967 46L838 77V587Q849 570 864 544T888 510L926 461zM796 935Q796 989 835 1026T927.5 1063T1019 1024T1057 935Q1057 836 926 615Q796 817 796 935zM926 852Q989 852 989 913.5T926 975Q900 975 880 958T860 914T880 869.5T926 852zM716 887Q718 833 752 753V77L442 -2V815z" />
    <glyph glyph-name="1-mark-alt"
      unicode="&#xF116;"
      horiz-adv-x="1200" d=" M1010 87Q836 -86 597.5 -86T188 85.5T17 496.5T188 908T597.5 1080T1009 908T1182 496.5T1010 87zM942 840Q801 983 599.5 983T255 841T112 497T255 152.5T599.5 10T943 152.5T1085 497T942 840zM890 205Q768 84 598.5 84T307 205.5T185 496T307 787T598.5 909T890.5 787T1013 496T890 205zM844 742Q744 843 599 843T352.5 743T251 496.5T352.5 250.5T599 151T844.5 250.5T945 496.5T844 742zM778 504H606V677Q606 685 597.5 685T589 677V504H418Q408 504 408 496T418 488H589V316Q589 309 597.5 309T606 316V488H778Q787 488 787 496T778 504z" />
    <glyph glyph-name="1-mark-alt-1"
      unicode="&#x31;&#x2D;&#x6D;&#x61;&#x72;&#x6B;&#x2D;&#x61;&#x6C;&#x74;"
      horiz-adv-x="1200" d=" M1010 87Q836 -86 597.5 -86T188 85.5T17 496.5T188 908T597.5 1080T1009 908T1182 496.5T1010 87zM942 840Q801 983 599.5 983T255 841T112 497T255 152.5T599.5 10T943 152.5T1085 497T942 840zM890 205Q768 84 598.5 84T307 205.5T185 496T307 787T598.5 909T890.5 787T1013 496T890 205zM844 742Q744 843 599 843T352.5 743T251 496.5T352.5 250.5T599 151T844.5 250.5T945 496.5T844 742zM778 504H606V677Q606 685 597.5 685T589 677V504H418Q408 504 408 496T418 488H589V316Q589 309 597.5 309T606 316V488H778Q787 488 787 496T778 504z" />
    <glyph glyph-name="1-mark"
      unicode="&#xF117;"
      horiz-adv-x="1200" d=" M912 806Q1039 676 1039 493.5T910.5 182.5T599 54T288 182.5T160 493.5T288 805.5T599 935T912 806zM633 154Q755 167 841 252.5T938 461H765V526H938Q927 650 841 736.5T633 833V658H567V833Q444 823 358 736.5T262 526H435V461H262Q272 338 358 252.5T567 154V331H633V154zM1013 907Q1184 734 1184 495T1012 82.5T600 -91T187.5 82.5T15 495T187.5 907T600 1080T1013 907zM965 129Q1116 280 1116 494T965.5 859.5T600.5 1011T234.5 859.5T83 494T234.5 129.5T600.5 -21T965 129z" />
    <glyph glyph-name="1-mark-1"
      unicode="&#x31;&#x2D;&#x6D;&#x61;&#x72;&#x6B;"
      horiz-adv-x="1200" d=" M912 806Q1039 676 1039 493.5T910.5 182.5T599 54T288 182.5T160 493.5T288 805.5T599 935T912 806zM633 154Q755 167 841 252.5T938 461H765V526H938Q927 650 841 736.5T633 833V658H567V833Q444 823 358 736.5T262 526H435V461H262Q272 338 358 252.5T567 154V331H633V154zM1013 907Q1184 734 1184 495T1012 82.5T600 -91T187.5 82.5T15 495T187.5 907T600 1080T1013 907zM965 129Q1116 280 1116 494T965.5 859.5T600.5 1011T234.5 859.5T83 494T234.5 129.5T600.5 -21T965 129z" />
    <glyph glyph-name="1-max-size"
      unicode="&#xF118;"
      horiz-adv-x="1200" d=" M601 640Q573 640 548.5 629.5T505.5 600.5T476 557T465 504T476 451.5T505.5 409T548.5 380.5T601 370T653.5 380.5T696 409T724.5 451.5T735 504T724.5 557T696 600.5T653.5 629.5T601 640zM1121 310Q1103 310 1089 296.5T1075 263V130L910 296Q897 309 878 309T847 296Q833 282 833 263T847 231L1011 66H877Q858 66 844 52.5T830 21Q830 1 844 -11.5T877 -24H1165V263Q1165 283 1152.5 296.5T1121 310zM1121 700Q1103 700 1089 713.5T1075 746V881L910 715Q897 702 878 702T847 715Q833 729 833 747.5T847 778L1011 943H877Q858 943 844 957T830 990Q830 1008 844 1021T877 1034H1165V746Q1165 727 1152.5 713.5T1121 700zM81 310Q100 310 113.5 296.5T127 263V130L291 296Q305 309 323.5 309T355 296Q369 282 369 263T355 231L190 66H326Q344 66 357 52.5T370 21Q370 1 357 -11.5T326 -24H35V263Q35 283 48.5 296.5T81 310zM81 700Q100 700 113.5 713.5T127 746V881L291 715Q305 702 323.5 702T355 715Q369 729 369 747.5T355 778L190 943H326Q344 943 357 957T370 990Q370 1008 357 1021T326 1034H35V746Q35 727 48.5 713.5T81 700z" />
    <glyph glyph-name="1-max-size-1"
      unicode="&#x31;&#x2D;&#x6D;&#x61;&#x78;&#x2D;&#x73;&#x69;&#x7A;&#x65;"
      horiz-adv-x="1200" d=" M601 640Q573 640 548.5 629.5T505.5 600.5T476 557T465 504T476 451.5T505.5 409T548.5 380.5T601 370T653.5 380.5T696 409T724.5 451.5T735 504T724.5 557T696 600.5T653.5 629.5T601 640zM1121 310Q1103 310 1089 296.5T1075 263V130L910 296Q897 309 878 309T847 296Q833 282 833 263T847 231L1011 66H877Q858 66 844 52.5T830 21Q830 1 844 -11.5T877 -24H1165V263Q1165 283 1152.5 296.5T1121 310zM1121 700Q1103 700 1089 713.5T1075 746V881L910 715Q897 702 878 702T847 715Q833 729 833 747.5T847 778L1011 943H877Q858 943 844 957T830 990Q830 1008 844 1021T877 1034H1165V746Q1165 727 1152.5 713.5T1121 700zM81 310Q100 310 113.5 296.5T127 263V130L291 296Q305 309 323.5 309T355 296Q369 282 369 263T355 231L190 66H326Q344 66 357 52.5T370 21Q370 1 357 -11.5T326 -24H35V263Q35 283 48.5 296.5T81 310zM81 700Q100 700 113.5 713.5T127 746V881L291 715Q305 702 323.5 702T355 715Q369 729 369 747.5T355 778L190 943H326Q344 943 357 957T370 990Q370 1008 357 1021T326 1034H35V746Q35 727 48.5 713.5T81 700z" />
    <glyph glyph-name="1-measure-area"
      unicode="&#xF119;"
      horiz-adv-x="1197" d=" M1111 226Q1139 220 1162 204T1200 165T1220.5 114.5T1220 58T1198 6.5T1159 -31T1108.5 -51T1053 -50Q1024 -44 1001 -28T963 10.5T942.5 60.5T943 117Q945 122 946.5 127.5T950 138L273 397Q264 373 248 354T210.5 323T164 307T113 308Q84 314 61.5 330T24 369T3 419T3 475T25.5 527T64.5 564.5T114.5 585T171 585Q195 580 214.5 567.5T250 538L611 847Q591 871 582 902.5T580 968Q586 996 602.5 1019T641.5 1057T691.5 1077T748 1076Q776 1070 799 1054T837 1015.5T857.5 965.5T857 910Q850 875 827.5 848.5T774 809L1026 217Q1065 235 1111 226z" />
    <glyph glyph-name="1-measure-area-1"
      unicode="&#x31;&#x2D;&#x6D;&#x65;&#x61;&#x73;&#x75;&#x72;&#x65;&#x2D;&#x61;&#x72;&#x65;&#x61;"
      horiz-adv-x="1197" d=" M1111 226Q1139 220 1162 204T1200 165T1220.5 114.5T1220 58T1198 6.5T1159 -31T1108.5 -51T1053 -50Q1024 -44 1001 -28T963 10.5T942.5 60.5T943 117Q945 122 946.5 127.5T950 138L273 397Q264 373 248 354T210.5 323T164 307T113 308Q84 314 61.5 330T24 369T3 419T3 475T25.5 527T64.5 564.5T114.5 585T171 585Q195 580 214.5 567.5T250 538L611 847Q591 871 582 902.5T580 968Q586 996 602.5 1019T641.5 1057T691.5 1077T748 1076Q776 1070 799 1054T837 1015.5T857.5 965.5T857 910Q850 875 827.5 848.5T774 809L1026 217Q1065 235 1111 226z" />
    <glyph glyph-name="1-measure-bearing"
      unicode="&#xF11A;"
      horiz-adv-x="1205" d=" M1347 348V100H0V348H96Q96 561 239 731L306 665Q323 654 334 654Q351 654 360 665Q385 689 360 720L295 785Q449 914 636 925V820Q636 782 674.5 782T713 820V925Q896 914 1048 785L981 720Q959 689 981 665Q994 654 1011.5 654T1038 665L1106 731Q1256 565 1256 348H1347zM1017 348Q1017 491 915.5 592T673.5 693T431 592T329 348H620Q629 398 674 398T727 348H1017z" />
    <glyph glyph-name="1-measure-bearing-1"
      unicode="&#x31;&#x2D;&#x6D;&#x65;&#x61;&#x73;&#x75;&#x72;&#x65;&#x2D;&#x62;&#x65;&#x61;&#x72;&#x69;&#x6E;&#x67;"
      horiz-adv-x="1205" d=" M1347 348V100H0V348H96Q96 561 239 731L306 665Q323 654 334 654Q351 654 360 665Q385 689 360 720L295 785Q449 914 636 925V820Q636 782 674.5 782T713 820V925Q896 914 1048 785L981 720Q959 689 981 665Q994 654 1011.5 654T1038 665L1106 731Q1256 565 1256 348H1347zM1017 348Q1017 491 915.5 592T673.5 693T431 592T329 348H620Q629 398 674 398T727 348H1017z" />
    <glyph glyph-name="1-measure-length"
      unicode="&#xF11B;"
      horiz-adv-x="1200" d=" M1003 -99Q1033 -99 1060 -87.5T1107 -56T1138.5 -9.5T1150 48Q1150 78 1138.5 104.5T1107 150.5T1060 181.5T1003 193T946.5 181.5T900 150.5T868.5 104.5T857 48Q857 17 868.5 -9.5T900 -56T946.5 -87.5T1003 -99zM81 648L49 995L393 941zM482 639L407 564L253 718L329 794zM684 439L608 363L454 516L530 593zM887 236L811 160L657 314L734 389z" />
    <glyph glyph-name="1-measure-length-1"
      unicode="&#x31;&#x2D;&#x6D;&#x65;&#x61;&#x73;&#x75;&#x72;&#x65;&#x2D;&#x6C;&#x65;&#x6E;&#x67;&#x74;&#x68;"
      horiz-adv-x="1200" d=" M1003 -99Q1033 -99 1060 -87.5T1107 -56T1138.5 -9.5T1150 48Q1150 78 1138.5 104.5T1107 150.5T1060 181.5T1003 193T946.5 181.5T900 150.5T868.5 104.5T857 48Q857 17 868.5 -9.5T900 -56T946.5 -87.5T1003 -99zM81 648L49 995L393 941zM482 639L407 564L253 718L329 794zM684 439L608 363L454 516L530 593zM887 236L811 160L657 314L734 389z" />
    <glyph glyph-name="1-measure-path"
      unicode="&#xF11C;"
      horiz-adv-x="1200" d=" M790 675L739 798Q714 795 690 799Q679 801 670 806L651 815L591 767L539 829L594 873Q583 894 579.5 917.5T581 967Q587 995 603 1018T641.5 1056T692 1076.5T749 1076Q777 1070 800 1054T838 1015T858 964.5T857 909Q853 885 841.5 866T813 832L865 706zM970 452L895 421L815 615L890 647zM490 789L540 726L377 594L325 658zM324 553L269 508Q291 465 281 417Q275 388 259 365T220 327.5T169.5 307T114 307Q85 313 62 329T24 368T3.5 418T4 474T26.5 526T65.5 564T115.5 584.5T172 584Q193 580 213 567L273 615zM1112 226Q1140 220 1163 203.5T1201 164T1221 113.5T1220 58Q1214 29 1198 6T1159.5 -32T1109 -52T1053 -51Q1024 -45 1001.5 -29T964 10T943.5 60T944 116Q949 139 960.5 158.5T989 193L921 359L996 390L1063 227Q1088 230 1112 226z" />
    <glyph glyph-name="1-measure-path-1"
      unicode="&#x31;&#x2D;&#x6D;&#x65;&#x61;&#x73;&#x75;&#x72;&#x65;&#x2D;&#x70;&#x61;&#x74;&#x68;"
      horiz-adv-x="1200" d=" M790 675L739 798Q714 795 690 799Q679 801 670 806L651 815L591 767L539 829L594 873Q583 894 579.5 917.5T581 967Q587 995 603 1018T641.5 1056T692 1076.5T749 1076Q777 1070 800 1054T838 1015T858 964.5T857 909Q853 885 841.5 866T813 832L865 706zM970 452L895 421L815 615L890 647zM490 789L540 726L377 594L325 658zM324 553L269 508Q291 465 281 417Q275 388 259 365T220 327.5T169.5 307T114 307Q85 313 62 329T24 368T3.5 418T4 474T26.5 526T65.5 564T115.5 584.5T172 584Q193 580 213 567L273 615zM1112 226Q1140 220 1163 203.5T1201 164T1221 113.5T1220 58Q1214 29 1198 6T1159.5 -32T1109 -52T1053 -51Q1024 -45 1001.5 -29T964 10T943.5 60T944 116Q949 139 960.5 158.5T989 193L921 359L996 390L1063 227Q1088 230 1112 226z" />
    <glyph glyph-name="1-menu-manage"
      unicode="&#xF11D;"
      horiz-adv-x="1200" d=" M1126 804H56Q34 804 17 820T0 858T17 895T56 910H1126Q1148 910 1163.5 895T1179 858T1163.5 820T1126 804zM602 438H56Q34 438 17 454T0 493Q0 512 15 529T43 546H636zM662 76H56Q34 76 17 91.5T0 128.5T17 166.5T56 183H612zM1224 385Q1218 399 1205 399Q1160 399 1144 438Q1128 479 1160 512Q1169 519 1163 531Q1136 567 1114 580Q1106 590 1092 576Q1065 541 1022 560Q977 584 984 625Q984 641 967 641Q936 643 904 641Q886 641 886 625Q894 580 850 562Q808 546 776 580Q769 590 757 584Q729 558 709 534Q698 526 709 512Q744 479 729 443Q704 399 663 399Q648 399 648 388Q641 353 648 322Q648 308 663 308Q709 308 726 266Q739 227 709 193Q698 185 709 175Q729 148 753 127Q762 116 776 127Q804 163 845 144Q886 127 886 80Q878 64 900 64H936H964Q981 64 981 80Q981 121 1019 144Q1058 157 1092 127Q1106 116 1114 124Q1142 144 1160 170Q1172 185 1160 191Q1122 224 1144 266Q1160 304 1203 304H1205Q1218 304 1224 322V353Q1227 385 1224 385zM936 256Q894 256 867.5 284T841 353T867.5 421.5T936 449Q975 449 1003.5 421.5T1032 353T1003.5 284T936 256z" />
    <glyph glyph-name="1-menu-manage-1"
      unicode="&#x31;&#x2D;&#x6D;&#x65;&#x6E;&#x75;&#x2D;&#x6D;&#x61;&#x6E;&#x61;&#x67;&#x65;"
      horiz-adv-x="1200" d=" M1126 804H56Q34 804 17 820T0 858T17 895T56 910H1126Q1148 910 1163.5 895T1179 858T1163.5 820T1126 804zM602 438H56Q34 438 17 454T0 493Q0 512 15 529T43 546H636zM662 76H56Q34 76 17 91.5T0 128.5T17 166.5T56 183H612zM1224 385Q1218 399 1205 399Q1160 399 1144 438Q1128 479 1160 512Q1169 519 1163 531Q1136 567 1114 580Q1106 590 1092 576Q1065 541 1022 560Q977 584 984 625Q984 641 967 641Q936 643 904 641Q886 641 886 625Q894 580 850 562Q808 546 776 580Q769 590 757 584Q729 558 709 534Q698 526 709 512Q744 479 729 443Q704 399 663 399Q648 399 648 388Q641 353 648 322Q648 308 663 308Q709 308 726 266Q739 227 709 193Q698 185 709 175Q729 148 753 127Q762 116 776 127Q804 163 845 144Q886 127 886 80Q878 64 900 64H936H964Q981 64 981 80Q981 121 1019 144Q1058 157 1092 127Q1106 116 1114 124Q1142 144 1160 170Q1172 185 1160 191Q1122 224 1144 266Q1160 304 1203 304H1205Q1218 304 1224 322V353Q1227 385 1224 385zM936 256Q894 256 867.5 284T841 353T867.5 421.5T936 449Q975 449 1003.5 421.5T1032 353T1003.5 284T936 256z" />
    <glyph glyph-name="1-pdf"
      unicode="&#xF11E;"
      horiz-adv-x="1200" d=" M1177 713V122Q1177 43 1121 -13T983 -69H445Q368 -69 311 -13T254 118H22V633H254V839Q254 919 311 975T445 1031H915zM292 378Q299 403 299 418Q299 438 287 451Q284 463 271 484Q258 499 236 507Q222 515 201 515H75V215H132V317H206Q231 317 240 325Q261 339 271 349zM1081 679V683H938Q901 683 876.5 708T852 769V937H445Q406 937 378.5 907.5T351 839V633H1005V118H351Q351 83 378.5 54T445 25H983Q1023 25 1052 54T1081 122V679zM499 215Q536 215 560 229Q584 234 605.5 258.5T635 303Q647 335 647 367.5T635 424Q632 447 609 471Q583 499 564 504Q528 515 499 515H389V215H499zM797 388V463H939V515H741V215H797V342H919V388H797zM583 327Q580 313 566 296Q564 293 559 289.5T548 282T536 276Q526 268 499 268H445V463H499Q516 463 536 456Q554 453 566 438Q580 418 583 407Q589 380 589 369Q589 349 583 327zM225 451Q231 446 233.5 438.5T236 418Q236 395 227 380Q216 369 201 369H132V463H198Q208 463 211 461Q222 461 225 451z" />
    <glyph glyph-name="1-pdf-1"
      unicode="&#x31;&#x2D;&#x70;&#x64;&#x66;"
      horiz-adv-x="1200" d=" M1177 713V122Q1177 43 1121 -13T983 -69H445Q368 -69 311 -13T254 118H22V633H254V839Q254 919 311 975T445 1031H915zM292 378Q299 403 299 418Q299 438 287 451Q284 463 271 484Q258 499 236 507Q222 515 201 515H75V215H132V317H206Q231 317 240 325Q261 339 271 349zM1081 679V683H938Q901 683 876.5 708T852 769V937H445Q406 937 378.5 907.5T351 839V633H1005V118H351Q351 83 378.5 54T445 25H983Q1023 25 1052 54T1081 122V679zM499 215Q536 215 560 229Q584 234 605.5 258.5T635 303Q647 335 647 367.5T635 424Q632 447 609 471Q583 499 564 504Q528 515 499 515H389V215H499zM797 388V463H939V515H741V215H797V342H919V388H797zM583 327Q580 313 566 296Q564 293 559 289.5T548 282T536 276Q526 268 499 268H445V463H499Q516 463 536 456Q554 453 566 438Q580 418 583 407Q589 380 589 369Q589 349 583 327zM225 451Q231 446 233.5 438.5T236 418Q236 395 227 380Q216 369 201 369H132V463H198Q208 463 211 461Q222 461 225 451z" />
    <glyph glyph-name="1-point-add"
      unicode="&#xF11F;"
      horiz-adv-x="1200" d=" M551 658Q517 658 487 645.5T434.5 610.5T399 558T386 494T399 430T434.5 377.5T487 342T551 329T615 342T667.5 377.5T703 430T716 494T703 558T667.5 610.5T615 645.5T551 658zM549 -57Q436 -57 336 -13.5T161.5 105T43.5 280T0 494T43.5 708T161.5 883T336 1001T549 1044Q663 1044 763.5 1001T938.5 883T1056.5 708T1100 494T1056.5 280T938.5 105T763.5 -13.5T549 -57zM549 993Q446 993 355.5 954T197 847T89.5 688T50 494Q50 390 89.5 299T197 140.5T355.5 33.5T549 -6Q618 -6 682 12T801.5 62.5T902.5 140.5T980.5 241.5T1031 361T1049 494Q1049 597 1009.5 688T902.5 847T743.5 954T549 993zM1489 885H1377V995Q1377 1023 1349 1023T1321 995V885H1210Q1181 885 1181 856Q1181 826 1210 826H1321V716Q1321 688 1349 688T1377 716V826H1489Q1516 826 1516 856Q1516 885 1489 885z" />
    <glyph glyph-name="1-point-add-1"
      unicode="&#x31;&#x2D;&#x70;&#x6F;&#x69;&#x6E;&#x74;&#x2D;&#x61;&#x64;&#x64;"
      horiz-adv-x="1200" d=" M551 658Q517 658 487 645.5T434.5 610.5T399 558T386 494T399 430T434.5 377.5T487 342T551 329T615 342T667.5 377.5T703 430T716 494T703 558T667.5 610.5T615 645.5T551 658zM549 -57Q436 -57 336 -13.5T161.5 105T43.5 280T0 494T43.5 708T161.5 883T336 1001T549 1044Q663 1044 763.5 1001T938.5 883T1056.5 708T1100 494T1056.5 280T938.5 105T763.5 -13.5T549 -57zM549 993Q446 993 355.5 954T197 847T89.5 688T50 494Q50 390 89.5 299T197 140.5T355.5 33.5T549 -6Q618 -6 682 12T801.5 62.5T902.5 140.5T980.5 241.5T1031 361T1049 494Q1049 597 1009.5 688T902.5 847T743.5 954T549 993zM1489 885H1377V995Q1377 1023 1349 1023T1321 995V885H1210Q1181 885 1181 856Q1181 826 1210 826H1321V716Q1321 688 1349 688T1377 716V826H1489Q1516 826 1516 856Q1516 885 1489 885z" />
    <glyph glyph-name="1-point-dashed"
      unicode="&#xF120;"
      horiz-adv-x="1202" d=" M601 663Q567 663 536.5 650T483.5 614T447.5 560.5T434 496Q434 461 447.5 430.5T483.5 377.5T536.5 342T601 329T665.5 342T719 377.5T755 430.5T768 496Q768 530 755 560.5T719 614T665.5 650T601 663zM522 -55Q482 -49 444 -38.5T369 -11L391 36Q423 20 458 10T529 -5zM680 -55L672 -5Q709 1 743 10.5T811 36L831 -10Q796 -27 757.5 -38T680 -55zM236 74Q176 126 133 194L175 222Q215 159 270 113zM964 75L931 113Q987 162 1025 223L1069 196Q1026 128 964 75zM66 338Q44 413 44 495H94Q94 458 99.5 422.5T116 352zM1135 339L1086 353Q1095 388 1100.5 423.5T1106 496L1157 498V496Q1157 414 1135 339zM115 637L65 652Q77 690 93.5 726.5T130 796L174 768Q135 708 115 637zM1085 640Q1064 711 1024 770L1067 798Q1111 731 1134 655zM268 877L235 915Q264 942 297.5 963.5T367 1002L389 955Q357 939 326 920T268 877zM930 879Q902 902 872 922T809 957L830 1003Q904 970 963 918zM527 996L520 1046Q540 1050 559.5 1051.5T599 1053H600Q640 1053 678 1047L670 996L636 1000L599 1002Q582 1002 563.5 1000T527 996z" />
    <glyph glyph-name="1-point-dashed-1"
      unicode="&#x31;&#x2D;&#x70;&#x6F;&#x69;&#x6E;&#x74;&#x2D;&#x64;&#x61;&#x73;&#x68;&#x65;&#x64;"
      horiz-adv-x="1202" d=" M601 663Q567 663 536.5 650T483.5 614T447.5 560.5T434 496Q434 461 447.5 430.5T483.5 377.5T536.5 342T601 329T665.5 342T719 377.5T755 430.5T768 496Q768 530 755 560.5T719 614T665.5 650T601 663zM522 -55Q482 -49 444 -38.5T369 -11L391 36Q423 20 458 10T529 -5zM680 -55L672 -5Q709 1 743 10.5T811 36L831 -10Q796 -27 757.5 -38T680 -55zM236 74Q176 126 133 194L175 222Q215 159 270 113zM964 75L931 113Q987 162 1025 223L1069 196Q1026 128 964 75zM66 338Q44 413 44 495H94Q94 458 99.5 422.5T116 352zM1135 339L1086 353Q1095 388 1100.5 423.5T1106 496L1157 498V496Q1157 414 1135 339zM115 637L65 652Q77 690 93.5 726.5T130 796L174 768Q135 708 115 637zM1085 640Q1064 711 1024 770L1067 798Q1111 731 1134 655zM268 877L235 915Q264 942 297.5 963.5T367 1002L389 955Q357 939 326 920T268 877zM930 879Q902 902 872 922T809 957L830 1003Q904 970 963 918zM527 996L520 1046Q540 1050 559.5 1051.5T599 1053H600Q640 1053 678 1047L670 996L636 1000L599 1002Q582 1002 563.5 1000T527 996z" />
    <glyph glyph-name="1-point"
      unicode="&#xF121;"
      horiz-adv-x="1200" d=" M601 658Q567 658 537 645.5T484.5 610.5T449 558T436 494T449 430T484.5 377.5T537 342T601 329T665 342T717.5 377.5T753 430T766 494T753 558T717.5 610.5T665 645.5T601 658zM599 -57Q486 -57 386 -13.5T211.5 105T93.5 280T50 494T93.5 708T211.5 883T386 1001T599 1044Q713 1044 813.5 1001T988.5 883T1106.5 708T1150 494T1106.5 280T988.5 105T813.5 -13.5T599 -57zM599 993Q496 993 405.5 954T247 847T139.5 688T100 494Q100 390 139.5 299T247 140.5T405.5 33.5T599 -6Q668 -6 732 12T851.5 62.5T952.5 140.5T1030.5 241.5T1081 361T1099 494Q1099 597 1059.5 688T952.5 847T793.5 954T599 993z" />
    <glyph glyph-name="1-point-1"
      unicode="&#x31;&#x2D;&#x70;&#x6F;&#x69;&#x6E;&#x74;"
      horiz-adv-x="1200" d=" M601 658Q567 658 537 645.5T484.5 610.5T449 558T436 494T449 430T484.5 377.5T537 342T601 329T665 342T717.5 377.5T753 430T766 494T753 558T717.5 610.5T665 645.5T601 658zM599 -57Q486 -57 386 -13.5T211.5 105T93.5 280T50 494T93.5 708T211.5 883T386 1001T599 1044Q713 1044 813.5 1001T988.5 883T1106.5 708T1150 494T1106.5 280T988.5 105T813.5 -13.5T599 -57zM599 993Q496 993 405.5 954T247 847T139.5 688T100 494Q100 390 139.5 299T247 140.5T405.5 33.5T599 -6Q668 -6 732 12T851.5 62.5T952.5 140.5T1030.5 241.5T1081 361T1099 494Q1099 597 1059.5 688T952.5 847T793.5 954T599 993z" />
    <glyph glyph-name="1-poligon"
      unicode="&#xF122;"
      horiz-adv-x="1200" d=" M1166 -51L33 287L490 997L1075 746zM543 824L249 368L1004 143L946 650z" />
    <glyph glyph-name="1-poligon-1"
      unicode="&#x31;&#x2D;&#x70;&#x6F;&#x6C;&#x69;&#x67;&#x6F;&#x6E;"
      horiz-adv-x="1200" d=" M1166 -51L33 287L490 997L1075 746zM543 824L249 368L1004 143L946 650z" />
    <glyph glyph-name="1-polygon-add"
      unicode="&#xF123;"
      horiz-adv-x="1200" d=" M1217 1030Q1217 982 1191 945T1123 892V276Q1165 261 1191 224T1217 139Q1217 109 1205.5 82.5T1174.5 35.5T1128 3.5T1071 -8Q1023 -8 985.5 19.5T933 89H284Q269 47 232 19.5T147 -8Q116 -8 89.5 3.5T43 35.5T11.5 82.5T0 139Q0 170 11.5 197T43 244T89.5 275.5T147 287Q164 287 179 283T208 273L937 968Q931 982 927.5 997.5T924 1030Q924 1060 935.5 1086.5T967 1133T1013.5 1164.5T1071 1176Q1101 1176 1128 1164.5T1174.5 1133T1205.5 1086.5T1217 1030zM935 194Q946 223 967.5 244.5T1018 276V892Q1016 893 1014.5 893T1011 895L282 199Q282 197 282.5 196T283 194H935zM1622 865Q1649 865 1649 836Q1649 806 1622 806H1510V696Q1510 668 1482 668T1454 696V806H1343Q1314 806 1314 836Q1314 865 1343 865H1454V975Q1454 1003 1482 1003T1510 975V865H1622z" />
    <glyph glyph-name="1-polygon-add-1"
      unicode="&#x31;&#x2D;&#x70;&#x6F;&#x6C;&#x79;&#x67;&#x6F;&#x6E;&#x2D;&#x61;&#x64;&#x64;"
      horiz-adv-x="1200" d=" M1217 1030Q1217 982 1191 945T1123 892V276Q1165 261 1191 224T1217 139Q1217 109 1205.5 82.5T1174.5 35.5T1128 3.5T1071 -8Q1023 -8 985.5 19.5T933 89H284Q269 47 232 19.5T147 -8Q116 -8 89.5 3.5T43 35.5T11.5 82.5T0 139Q0 170 11.5 197T43 244T89.5 275.5T147 287Q164 287 179 283T208 273L937 968Q931 982 927.5 997.5T924 1030Q924 1060 935.5 1086.5T967 1133T1013.5 1164.5T1071 1176Q1101 1176 1128 1164.5T1174.5 1133T1205.5 1086.5T1217 1030zM935 194Q946 223 967.5 244.5T1018 276V892Q1016 893 1014.5 893T1011 895L282 199Q282 197 282.5 196T283 194H935zM1622 865Q1649 865 1649 836Q1649 806 1622 806H1510V696Q1510 668 1482 668T1454 696V806H1343Q1314 806 1314 836Q1314 865 1343 865H1454V975Q1454 1003 1482 1003T1510 975V865H1622z" />
    <glyph glyph-name="1-polygon-dashed"
      unicode="&#xF124;"
      horiz-adv-x="1200" d=" M543 191H673V86H543V191zM363 136Q363 162 355 191H445V86H357Q359 98 361 110.5T363 136zM860 191Q854 164 854 136Q854 123 855 110.5T859 86H771V191H860zM1122 345Q1109 348 1095.5 350T1070 352Q1056 352 1042.5 350T1017 345V424H1122V345zM1017 641H1122V516H1017V641zM1017 815Q1029 812 1042.5 810T1070 808Q1082 808 1095.5 810T1122 815V733H1017V815zM790 680L684 579L612 655L717 756zM797 831L884 915Q898 892 916.5 872.5T958 839L869 756zM605 502L499 401L427 476L532 578zM334 244Q320 267 301.5 286.5T260 319L347 401L418 326zM1216 1024Q1216 994 1204.5 967T1173 920.5T1126.5 889.5T1070 878Q1039 878 1012.5 889.5T966.5 920.5T935.5 967T924 1024T935.5 1081T966.5 1127.5T1012.5 1158.5T1070 1170Q1100 1170 1126.5 1158.5T1173 1127.5T1204.5 1081T1216 1024zM924 136Q924 166 935.5 193T966.5 239.5T1012.5 270.5T1070 282Q1100 282 1126.5 270.5T1173 239.5T1204.5 193T1216 136T1204.5 79T1173 32T1126.5 0.5T1070 -11Q1039 -11 1012.5 0.5T966.5 32T935.5 79T924 136zM146 282Q177 282 204 270.5T250.5 239.5T281.5 193T293 136T281.5 79T250.5 32T204 0.5T146 -11Q116 -11 89 0.5T42.5 32T11.5 79T0 136T11.5 193T42.5 239.5T89 270.5T146 282z" />
    <glyph glyph-name="1-polygon-dashed-1"
      unicode="&#x31;&#x2D;&#x70;&#x6F;&#x6C;&#x79;&#x67;&#x6F;&#x6E;&#x2D;&#x64;&#x61;&#x73;&#x68;&#x65;&#x64;"
      horiz-adv-x="1200" d=" M543 191H673V86H543V191zM363 136Q363 162 355 191H445V86H357Q359 98 361 110.5T363 136zM860 191Q854 164 854 136Q854 123 855 110.5T859 86H771V191H860zM1122 345Q1109 348 1095.5 350T1070 352Q1056 352 1042.5 350T1017 345V424H1122V345zM1017 641H1122V516H1017V641zM1017 815Q1029 812 1042.5 810T1070 808Q1082 808 1095.5 810T1122 815V733H1017V815zM790 680L684 579L612 655L717 756zM797 831L884 915Q898 892 916.5 872.5T958 839L869 756zM605 502L499 401L427 476L532 578zM334 244Q320 267 301.5 286.5T260 319L347 401L418 326zM1216 1024Q1216 994 1204.5 967T1173 920.5T1126.5 889.5T1070 878Q1039 878 1012.5 889.5T966.5 920.5T935.5 967T924 1024T935.5 1081T966.5 1127.5T1012.5 1158.5T1070 1170Q1100 1170 1126.5 1158.5T1173 1127.5T1204.5 1081T1216 1024zM924 136Q924 166 935.5 193T966.5 239.5T1012.5 270.5T1070 282Q1100 282 1126.5 270.5T1173 239.5T1204.5 193T1216 136T1204.5 79T1173 32T1126.5 0.5T1070 -11Q1039 -11 1012.5 0.5T966.5 32T935.5 79T924 136zM146 282Q177 282 204 270.5T250.5 239.5T281.5 193T293 136T281.5 79T250.5 32T204 0.5T146 -11Q116 -11 89 0.5T42.5 32T11.5 79T0 136T11.5 193T42.5 239.5T89 270.5T146 282z" />
    <glyph glyph-name="1-polygon"
      unicode="&#xF125;"
      horiz-adv-x="1200" d=" M1217 1030Q1217 982 1191 945T1123 892V276Q1165 261 1191 224T1217 139Q1217 109 1205.5 82.5T1174.5 35.5T1128 3.5T1071 -8Q1023 -8 985.5 19.5T933 89H284Q269 47 232 19.5T147 -8Q116 -8 89.5 3.5T43 35.5T11.5 82.5T0 139Q0 170 11.5 197T43 244T89.5 275.5T147 287Q164 287 179 283T208 273L937 968Q931 982 927.5 997.5T924 1030Q924 1060 935.5 1086.5T967 1133T1013.5 1164.5T1071 1176Q1101 1176 1128 1164.5T1174.5 1133T1205.5 1086.5T1217 1030zM935 194Q946 223 967.5 244.5T1018 276V892Q1016 893 1014.5 893T1011 895L282 199Q282 197 282.5 196T283 194H935z" />
    <glyph glyph-name="1-polygon-1"
      unicode="&#x31;&#x2D;&#x70;&#x6F;&#x6C;&#x79;&#x67;&#x6F;&#x6E;"
      horiz-adv-x="1200" d=" M1217 1030Q1217 982 1191 945T1123 892V276Q1165 261 1191 224T1217 139Q1217 109 1205.5 82.5T1174.5 35.5T1128 3.5T1071 -8Q1023 -8 985.5 19.5T933 89H284Q269 47 232 19.5T147 -8Q116 -8 89.5 3.5T43 35.5T11.5 82.5T0 139Q0 170 11.5 197T43 244T89.5 275.5T147 287Q164 287 179 283T208 273L937 968Q931 982 927.5 997.5T924 1030Q924 1060 935.5 1086.5T967 1133T1013.5 1164.5T1071 1176Q1101 1176 1128 1164.5T1174.5 1133T1205.5 1086.5T1217 1030zM935 194Q946 223 967.5 244.5T1018 276V892Q1016 893 1014.5 893T1011 895L282 199Q282 197 282.5 196T283 194H935z" />
    <glyph glyph-name="1-position-1"
      unicode="&#xF126;"
      horiz-adv-x="1200" d=" M1016 948Q1185 775 1185 531.5T1014.5 117.5T601 -53T186.5 117.5T15 531.5T186.5 946T601 1117T1016 948zM646 82Q808 97 922 210.5T1052 490H823V574H1052Q1036 739 922 853.5T646 982V750H559V982Q395 968 280 853.5T151 574H382V490H151Q165 324 280 210.5T559 82V314H646V82z" />
    <glyph glyph-name="1-position-1-1"
      unicode="&#x31;&#x2D;&#x70;&#x6F;&#x73;&#x69;&#x74;&#x69;&#x6F;&#x6E;&#x2D;&#x31;"
      horiz-adv-x="1200" d=" M1016 948Q1185 775 1185 531.5T1014.5 117.5T601 -53T186.5 117.5T15 531.5T186.5 946T601 1117T1016 948zM646 82Q808 97 922 210.5T1052 490H823V574H1052Q1036 739 922 853.5T646 982V750H559V982Q395 968 280 853.5T151 574H382V490H151Q165 324 280 210.5T559 82V314H646V82z" />
    <glyph glyph-name="1-raster"
      unicode="&#xF127;"
      horiz-adv-x="1202" d=" M271 -71H51V86H271V-71zM492 86H271V242H492V86zM711 -71H492V86H711V-71zM931 86H711V242H931V86zM1150 -71H931V86H1150V-71zM271 242H51V399H271V242zM492 399H271V557H492V399zM711 242H492V399H711V242zM931 399H711V557H931V399zM1150 242H931V399H1150V242zM271 557H51V714H271V557zM492 714H271V870H492V714zM711 557H492V714H711V557zM931 714H711V870H931V714zM1150 557H931V714H1150V557zM271 870H51V1027H271V870zM711 870H492V1027H711V870zM1150 870H931V1027H1150V870z" />
    <glyph glyph-name="1-raster-1"
      unicode="&#x31;&#x2D;&#x72;&#x61;&#x73;&#x74;&#x65;&#x72;"
      horiz-adv-x="1202" d=" M271 -71H51V86H271V-71zM492 86H271V242H492V86zM711 -71H492V86H711V-71zM931 86H711V242H931V86zM1150 -71H931V86H1150V-71zM271 242H51V399H271V242zM492 399H271V557H492V399zM711 242H492V399H711V242zM931 399H711V557H931V399zM1150 242H931V399H1150V242zM271 557H51V714H271V557zM492 714H271V870H492V714zM711 557H492V714H711V557zM931 714H711V870H931V714zM1150 557H931V714H1150V557zM271 870H51V1027H271V870zM711 870H492V1027H711V870zM1150 870H931V1027H1150V870z" />
    <glyph glyph-name="1-ruler-alt-2"
      unicode="&#xF128;"
      horiz-adv-x="1202" d=" M1185 205L1242 147L988 -108L637 244L507 117L0 -142L267 375L387 495L21 860L276 1114L376 1013L305 943Q297 933 297 920.5T305 899Q315 889 328 889Q333 889 340 891.5T352 899L419 969L471 918L335 782Q327 773 327 760T335 738Q338 733 345 730.5T358 728Q363 728 370 730.5T382 738L516 873L566 821L497 752Q488 743 488 730.5T497 708Q501 703 507 701T519 699Q524 699 530.5 701T542 708L611 778L640 748L1012 1121L1263 869L890 499L949 440L879 371Q868 360 868 347.5T879 325Q887 317 901 317T923 325L993 396L1044 345L908 208Q897 200 897 187T908 165Q915 154 931 154Q942 154 952 165L1089 300L1139 249L1070 179Q1060 170 1060 157T1070 135Q1079 125 1092 125Q1107 125 1113 135zM477 199Q473 210 466.5 221T450 240.5T427 253T396 255Q399 273 396 286T385.5 309T367 325.5T345 336L332 321L222 110Q227 108 231.5 104T238 96Q247 90 253 79L465 187zM1098 956L1033 1019L389 379Q409 373 421.5 362T442 340Q450 327 454 313z" />
    <glyph glyph-name="1-ruler-alt-2-1"
      unicode="&#x31;&#x2D;&#x72;&#x75;&#x6C;&#x65;&#x72;&#x2D;&#x61;&#x6C;&#x74;&#x2D;&#x32;"
      horiz-adv-x="1202" d=" M1185 205L1242 147L988 -108L637 244L507 117L0 -142L267 375L387 495L21 860L276 1114L376 1013L305 943Q297 933 297 920.5T305 899Q315 889 328 889Q333 889 340 891.5T352 899L419 969L471 918L335 782Q327 773 327 760T335 738Q338 733 345 730.5T358 728Q363 728 370 730.5T382 738L516 873L566 821L497 752Q488 743 488 730.5T497 708Q501 703 507 701T519 699Q524 699 530.5 701T542 708L611 778L640 748L1012 1121L1263 869L890 499L949 440L879 371Q868 360 868 347.5T879 325Q887 317 901 317T923 325L993 396L1044 345L908 208Q897 200 897 187T908 165Q915 154 931 154Q942 154 952 165L1089 300L1139 249L1070 179Q1060 170 1060 157T1070 135Q1079 125 1092 125Q1107 125 1113 135zM477 199Q473 210 466.5 221T450 240.5T427 253T396 255Q399 273 396 286T385.5 309T367 325.5T345 336L332 321L222 110Q227 108 231.5 104T238 96Q247 90 253 79L465 187zM1098 956L1033 1019L389 379Q409 373 421.5 362T442 340Q450 327 454 313z" />
    <glyph glyph-name="1-ruler-alt"
      unicode="&#xF129;"
      horiz-adv-x="1202" d=" M361 -73H42V1049H361V898H296Q285 898 277.5 890.5T270 872T277.5 854T296 847H361V765V746V739H296H247Q236 739 228.5 731T221 712T228.5 694T247 687H361V594H296Q285 594 277.5 587T270 569T277.5 550.5T296 543L361 542V453H296Q285 453 277.5 446T270 428T277.5 409.5T296 402H361V293H296Q285 293 277.5 285.5T270 267T277.5 249T296 242H361V133H247Q236 133 228.5 125.5T221 107T228.5 89T247 82H361V-73zM1034 730V796Q1034 806 1026 813.5T1007 821Q997 821 989.5 813.5T982 796V730H862V843Q862 854 854.5 862T836 870T817.5 862T810 843V730H714V796Q714 806 706.5 813.5T688 821T669.5 813.5T662 796V730H565V796Q565 806 557.5 813.5T539 821T520.5 813.5T513 796V730H416V1049H1164V730H1034z" />
    <glyph glyph-name="1-ruler-alt-1"
      unicode="&#x31;&#x2D;&#x72;&#x75;&#x6C;&#x65;&#x72;&#x2D;&#x61;&#x6C;&#x74;"
      horiz-adv-x="1202" d=" M361 -73H42V1049H361V898H296Q285 898 277.5 890.5T270 872T277.5 854T296 847H361V765V746V739H296H247Q236 739 228.5 731T221 712T228.5 694T247 687H361V594H296Q285 594 277.5 587T270 569T277.5 550.5T296 543L361 542V453H296Q285 453 277.5 446T270 428T277.5 409.5T296 402H361V293H296Q285 293 277.5 285.5T270 267T277.5 249T296 242H361V133H247Q236 133 228.5 125.5T221 107T228.5 89T247 82H361V-73zM1034 730V796Q1034 806 1026 813.5T1007 821Q997 821 989.5 813.5T982 796V730H862V843Q862 854 854.5 862T836 870T817.5 862T810 843V730H714V796Q714 806 706.5 813.5T688 821T669.5 813.5T662 796V730H565V796Q565 806 557.5 813.5T539 821T520.5 813.5T513 796V730H416V1049H1164V730H1034z" />
    <glyph glyph-name="1-ruler"
      unicode="&#xF12A;"
      horiz-adv-x="1200" d=" M1073 705L1025 657L896 787Q886 795 873.5 795T853 787Q844 777 844 764.5T853 744L983 614L934 566L867 633Q859 641 846.5 641T824 633Q816 623 816 610.5T824 590L891 523L842 474L713 605Q704 613 691.5 613T670 605Q662 595 662 582.5T670 562L800 431L752 384L685 451Q677 459 664 459T642 451Q634 441 634 428.5T642 408L709 341L660 292L531 422Q522 431 509 431T488 422T480 400.5T488 379L618 249L570 202L503 268Q494 277 481.5 277T460 268T451 246.5T460 225L527 159L478 110L349 240Q339 248 327 248T306 240Q297 231 297 218.5T306 197L436 67L387 19L321 86Q312 94 299.5 94T278 86Q269 77 269 64T278 43L344 -24L289 -79L47 163L930 1045L1172 803L1116 748L1050 815Q1040 823 1028 823T1007 815Q998 806 998 793T1007 772z" />
    <glyph glyph-name="1-ruler-1"
      unicode="&#x31;&#x2D;&#x72;&#x75;&#x6C;&#x65;&#x72;"
      horiz-adv-x="1200" d=" M1073 705L1025 657L896 787Q886 795 873.5 795T853 787Q844 777 844 764.5T853 744L983 614L934 566L867 633Q859 641 846.5 641T824 633Q816 623 816 610.5T824 590L891 523L842 474L713 605Q704 613 691.5 613T670 605Q662 595 662 582.5T670 562L800 431L752 384L685 451Q677 459 664 459T642 451Q634 441 634 428.5T642 408L709 341L660 292L531 422Q522 431 509 431T488 422T480 400.5T488 379L618 249L570 202L503 268Q494 277 481.5 277T460 268T451 246.5T460 225L527 159L478 110L349 240Q339 248 327 248T306 240Q297 231 297 218.5T306 197L436 67L387 19L321 86Q312 94 299.5 94T278 86Q269 77 269 64T278 43L344 -24L289 -79L47 163L930 1045L1172 803L1116 748L1050 815Q1040 823 1028 823T1007 815Q998 806 998 793T1007 772z" />
    <glyph glyph-name="1-screen-backward"
      unicode="&#xF12B;"
      horiz-adv-x="1202" d=" M204 323Q317 323 379.5 244T448 119.5T454 40L437 75Q423 113 360 148.5T204 184V57L0 245L204 426V323zM1240 889V92H559V228H1107V757H259V525H126V889H1240z" />
    <glyph glyph-name="1-screen-backward-1"
      unicode="&#x31;&#x2D;&#x73;&#x63;&#x72;&#x65;&#x65;&#x6E;&#x2D;&#x62;&#x61;&#x63;&#x6B;&#x77;&#x61;&#x72;&#x64;"
      horiz-adv-x="1202" d=" M204 323Q317 323 379.5 244T448 119.5T454 40L437 75Q423 113 360 148.5T204 184V57L0 245L204 426V323zM1240 889V92H559V228H1107V757H259V525H126V889H1240z" />
    <glyph glyph-name="1-screen-forward"
      unicode="&#xF12C;"
      horiz-adv-x="1200" d=" M1027 92V218Q937 218 873.5 176.5T795.5 112.5T780 73L787 142Q793 213 855.5 283T1027 358V460L1230 276zM161 226H703V97H30V888H1135V526H1003V754H161V226z" />
    <glyph glyph-name="1-screen-forward-1"
      unicode="&#x31;&#x2D;&#x73;&#x63;&#x72;&#x65;&#x65;&#x6E;&#x2D;&#x66;&#x6F;&#x72;&#x77;&#x61;&#x72;&#x64;"
      horiz-adv-x="1200" d=" M1027 92V218Q937 218 873.5 176.5T795.5 112.5T780 73L787 142Q793 213 855.5 283T1027 358V460L1230 276zM161 226H703V97H30V888H1135V526H1003V754H161V226z" />
    <glyph glyph-name="1-set-squadre"
      unicode="&#xF12D;"
      horiz-adv-x="1202" d=" M6 -67L0 1146L142 1004L99 962Q91 955 91 941Q91 928 99 921Q107 912 119 912T141 921L183 963L243 905L198 861Q191 852 191 840Q191 831 198 819Q208 811 220 811T240 819L284 864L343 804L300 761Q291 752 291 740Q291 729 300 719Q308 710 320 710T341 719L384 763L443 704L361 621Q356 617 354 611.5T352 601Q352 589 361 580Q369 571 381.5 571T402 580L486 663L543 604L500 560Q491 549 491 540Q491 530 500 519Q509 510 521 510T541 519L585 563L644 503L601 460Q596 455 594 450T592 440Q592 424 601 419Q609 410 621 410T642 419L686 461L745 403L701 359Q692 348 692 339Q692 327 701 318Q710 310 722 310T742 318L786 361L846 302L763 220Q754 212 754 199T763 179Q771 170 783 170T804 179L887 261L946 201L902 158Q897 155 895.5 149T894 137Q894 125 902 117Q911 109 923.5 109T944 117L987 160L1047 102L1004 58Q995 50 995 37Q995 25 1004 16Q1012 8 1023.5 8T1045 16L1087 60L1215 -67H6zM660 159L205 614L207 159H660z" />
    <glyph glyph-name="1-set-squadre-1"
      unicode="&#x31;&#x2D;&#x73;&#x65;&#x74;&#x2D;&#x73;&#x71;&#x75;&#x61;&#x64;&#x72;&#x65;"
      horiz-adv-x="1202" d=" M6 -67L0 1146L142 1004L99 962Q91 955 91 941Q91 928 99 921Q107 912 119 912T141 921L183 963L243 905L198 861Q191 852 191 840Q191 831 198 819Q208 811 220 811T240 819L284 864L343 804L300 761Q291 752 291 740Q291 729 300 719Q308 710 320 710T341 719L384 763L443 704L361 621Q356 617 354 611.5T352 601Q352 589 361 580Q369 571 381.5 571T402 580L486 663L543 604L500 560Q491 549 491 540Q491 530 500 519Q509 510 521 510T541 519L585 563L644 503L601 460Q596 455 594 450T592 440Q592 424 601 419Q609 410 621 410T642 419L686 461L745 403L701 359Q692 348 692 339Q692 327 701 318Q710 310 722 310T742 318L786 361L846 302L763 220Q754 212 754 199T763 179Q771 170 783 170T804 179L887 261L946 201L902 158Q897 155 895.5 149T894 137Q894 125 902 117Q911 109 923.5 109T944 117L987 160L1047 102L1004 58Q995 50 995 37Q995 25 1004 16Q1012 8 1023.5 8T1045 16L1087 60L1215 -67H6zM660 159L205 614L207 159H660z" />
    <glyph glyph-name="1-social-fb"
      unicode="&#xF12E;"
      horiz-adv-x="1200" d=" M692 -58H451V524H329V724H451V842Q451 1105 713 1105H871V904H768Q734 904 717 893.5T696 869T692 824V724H871L850 524H692V-58z" />
    <glyph glyph-name="1-social-fb-1"
      unicode="&#x31;&#x2D;&#x73;&#x6F;&#x63;&#x69;&#x61;&#x6C;&#x2D;&#x66;&#x62;"
      horiz-adv-x="1200" d=" M692 -58H451V524H329V724H451V842Q451 1105 713 1105H871V904H768Q734 904 717 893.5T696 869T692 824V724H871L850 524H692V-58z" />
    <glyph glyph-name="1-social-tw"
      unicode="&#xF12F;"
      horiz-adv-x="1200" d=" M1219 896Q1183 837 1095 767V740Q1095 468 900 249T386 30Q184 30 0 137H64Q236 137 372 242Q293 244 228 293T141 416Q153 413 184 413Q232 413 250 421Q169 437 111 504T53 662V668Q110 639 163 639Q56 705 56 842Q56 914 88 968Q289 722 600 710Q592 743 592 767Q592 871 666 942T845 1013Q954 1013 1026 934Q1112 956 1187 998Q1152 902 1072 860Q1126 864 1219 896z" />
    <glyph glyph-name="1-social-tw-1"
      unicode="&#x31;&#x2D;&#x73;&#x6F;&#x63;&#x69;&#x61;&#x6C;&#x2D;&#x74;&#x77;"
      horiz-adv-x="1200" d=" M1219 896Q1183 837 1095 767V740Q1095 468 900 249T386 30Q184 30 0 137H64Q236 137 372 242Q293 244 228 293T141 416Q153 413 184 413Q232 413 250 421Q169 437 111 504T53 662V668Q110 639 163 639Q56 705 56 842Q56 914 88 968Q289 722 600 710Q592 743 592 767Q592 871 666 942T845 1013Q954 1013 1026 934Q1112 956 1187 998Q1152 902 1072 860Q1126 864 1219 896z" />
    <glyph glyph-name="1-stilo"
      unicode="&#xF130;"
      horiz-adv-x="1200" d=" M634 377L553 72L32 -86L287 170Q351 128 410 183Q441 216 441 255T409 325T339 356T267 324Q213 266 256 203L0 -54L158 468L461 550zM1229 911L775 458L678 430L515 591L544 692L998 1145z" />
    <glyph glyph-name="1-stilo-1"
      unicode="&#x31;&#x2D;&#x73;&#x74;&#x69;&#x6C;&#x6F;"
      horiz-adv-x="1200" d=" M634 377L553 72L32 -86L287 170Q351 128 410 183Q441 216 441 255T409 325T339 356T267 324Q213 266 256 203L0 -54L158 468L461 550zM1229 911L775 458L678 430L515 591L544 692L998 1145z" />
    <glyph glyph-name="1-time-user"
      unicode="&#xF131;"
      horiz-adv-x="1200" d=" M737 758Q737 651 663 560.5T490.5 470T320 560.5T248 758Q248 858 318.5 929T491 1000T665 929T737 758zM0 -50Q0 80 139 198T490 316Q705 316 844 198T983 -50H0zM1384 729Q1384 806 1328.5 859T1199.5 912T1071 859T1016 729Q1016 653 1071 598.5T1199.5 544T1328.5 598.5T1384 729zM1361 889Q1429 823 1429 727.5T1362 567T1199 502T1036 567T969 727.5T1036 891T1199 959T1361 889zM1315 762Q1322 746 1303 741L1206 704H1200L1198 701Q1179 701 1179 719V877Q1179 893 1196 893T1213 877V746L1292 770Q1310 777 1315 762z" />
    <glyph glyph-name="1-time-user-1"
      unicode="&#x31;&#x2D;&#x74;&#x69;&#x6D;&#x65;&#x2D;&#x75;&#x73;&#x65;&#x72;"
      horiz-adv-x="1200" d=" M737 758Q737 651 663 560.5T490.5 470T320 560.5T248 758Q248 858 318.5 929T491 1000T665 929T737 758zM0 -50Q0 80 139 198T490 316Q705 316 844 198T983 -50H0zM1384 729Q1384 806 1328.5 859T1199.5 912T1071 859T1016 729Q1016 653 1071 598.5T1199.5 544T1328.5 598.5T1384 729zM1361 889Q1429 823 1429 727.5T1362 567T1199 502T1036 567T969 727.5T1036 891T1199 959T1361 889zM1315 762Q1322 746 1303 741L1206 704H1200L1198 701Q1179 701 1179 719V877Q1179 893 1196 893T1213 877V746L1292 770Q1310 777 1315 762z" />
    <glyph glyph-name="1-user-add"
      unicode="&#xF132;"
      horiz-adv-x="1202" d=" M735 755Q735 649 660.5 558.5T488 468T318 558.5T246 755Q246 857 316 929T488.5 1001T663 929T735 755zM0 -47Q0 82 138.5 199.5T489 317Q702 317 841.5 199.5T981 -47H0zM1348 801Q1397 801 1397 750Q1397 697 1348 697H1220V570Q1220 520 1169 520T1118 570V697H991Q938 697 938 750Q938 801 991 801H1118V927Q1118 977 1169 977T1220 927V801H1348z" />
    <glyph glyph-name="1-user-add-1"
      unicode="&#x31;&#x2D;&#x75;&#x73;&#x65;&#x72;&#x2D;&#x61;&#x64;&#x64;"
      horiz-adv-x="1202" d=" M735 755Q735 649 660.5 558.5T488 468T318 558.5T246 755Q246 857 316 929T488.5 1001T663 929T735 755zM0 -47Q0 82 138.5 199.5T489 317Q702 317 841.5 199.5T981 -47H0zM1348 801Q1397 801 1397 750Q1397 697 1348 697H1220V570Q1220 520 1169 520T1118 570V697H991Q938 697 938 750Q938 801 991 801H1118V927Q1118 977 1169 977T1220 927V801H1348z" />
    <glyph glyph-name="1-user-cancel"
      unicode="&#xF133;"
      horiz-adv-x="1200" d=" M735 756Q735 652 660.5 561.5T488 471T318 561.5T246 756Q246 857 316 927.5T488.5 998T663 927.5T735 756zM0 -49Q0 80 138.5 196.5T489 313Q702 313 841.5 196.5T981 -49H0zM1328 696H1011Q958 696 958 747T1011 798H1328Q1377 798 1377 747T1328 696z" />
    <glyph glyph-name="1-user-cancel-1"
      unicode="&#x31;&#x2D;&#x75;&#x73;&#x65;&#x72;&#x2D;&#x63;&#x61;&#x6E;&#x63;&#x65;&#x6C;"
      horiz-adv-x="1200" d=" M735 756Q735 652 660.5 561.5T488 471T318 561.5T246 756Q246 857 316 927.5T488.5 998T663 927.5T735 756zM0 -49Q0 80 138.5 196.5T489 313Q702 313 841.5 196.5T981 -49H0zM1328 696H1011Q958 696 958 747T1011 798H1328Q1377 798 1377 747T1328 696z" />
    <glyph glyph-name="1-user-mod"
      unicode="&#xF134;"
      horiz-adv-x="1200" d=" M737 757Q737 653 664.5 562.5T494 472T322 562.5T248 757Q248 858 320 928.5T493 999Q592 999 664.5 928.5T737 757zM0 -48Q0 81 139 197.5T493 314Q703 314 845 197.5T987 -48H0zM992 765L1097 843L1008 963Q1030 985 1097 951.5T1170 873Q1183 805 1134 738T1002 677Q950 678 924 726.5T904 813.5T910 862zM1421 391L1309 312L1102 604L1097 612Q1140 627 1175 660Q1187 677 1207 713L1216 687z" />
    <glyph glyph-name="1-user-mod-1"
      unicode="&#x31;&#x2D;&#x75;&#x73;&#x65;&#x72;&#x2D;&#x6D;&#x6F;&#x64;"
      horiz-adv-x="1200" d=" M737 757Q737 653 664.5 562.5T494 472T322 562.5T248 757Q248 858 320 928.5T493 999Q592 999 664.5 928.5T737 757zM0 -48Q0 81 139 197.5T493 314Q703 314 845 197.5T987 -48H0zM992 765L1097 843L1008 963Q1030 985 1097 951.5T1170 873Q1183 805 1134 738T1002 677Q950 678 924 726.5T904 813.5T910 862zM1421 391L1309 312L1102 604L1097 612Q1140 627 1175 660Q1187 677 1207 713L1216 687z" />
    <glyph glyph-name="1-vector-alt"
      unicode="&#xF135;"
      horiz-adv-x="1200" d=" M261 775Q266 775 272 777T283 781L294 769Q280 759 261 759Q232 759 212 779T192 828T212 877T261 897Q289 897 309.5 877T330 828Q330 817 327 808T319 791L306 804Q313 814 313 828Q313 850 298 865T261 880T223.5 865T208 828T223.5 790.5T261 775zM319 791Q309 777 294 769L283 781Q299 788 306 804zM261 880Q283 880 298 865T313 828Q313 814 306 804L294 818Q296 824 296 828Q296 842 285.5 852.5T261 863Q246 863 235.5 852.5T225 828Q225 813 235.5 802.5T261 792Q263 792 265 792.5T270 794L283 781Q278 779 272 777T261 775Q239 775 223.5 790.5T208 828T223.5 865T261 880zM270 794Q278 797 285 803T294 818L306 804Q299 788 283 781zM883 155Q894 171 908 178L920 166Q904 159 896 143zM942 67Q920 67 905 82T890 119Q890 131 896 143L909 129Q907 123 907 119Q907 104 917 94T942 84Q956 84 966.5 94T977 119Q977 133 966.5 143.5T942 154Q940 154 937.5 153.5T932 153L920 166Q925 168 930 169.5T942 171Q963 171 978 155.5T993 119Q993 97 978 82T942 67zM942 171Q935 171 930 169.5T920 166L908 178Q923 187 942 187Q971 187 990.5 167.5T1010 119Q1010 91 990.5 70.5T942 50Q914 50 893.5 70.5T873 119Q873 138 883 155L896 143Q890 131 890 119Q890 97 905 82T942 67Q963 67 978 82T993 119Q993 140 978 155.5T942 171zM1166 985Q1164 974 1157 944T1138.5 871.5T1110 777.5T1071.5 672.5T1023 567T963.5 471.5T893 396.5T811 352Q778 343 749 344L908 178Q894 171 883 155L691 355Q671 362 651.5 373.5T612 400H522V480Q501 495 483.5 502T453 510.5T430.5 510T416 507Q373 494 333 445T258.5 327T196 179T149 27Q144 7 140 -12L132 -50Q128 -67 114 -78.5T83 -90Q76 -90 73 -89Q53 -84 41 -67T34 -30Q36 -19 43 11T61.5 83.5T90 177.5T128.5 282.5T177 388T236.5 483.5T307 558.5T389 603Q403 608 417.5 609.5T446 611L294 769Q309 777 319 791L501 602Q523 595 544.5 583.5T588 555H678V475Q699 460 716 453T746.5 444.5T769 444.5T783 447Q826 460 866.5 509.5T941.5 628T1003.5 776T1050 928Q1055 948 1059 967T1068 1005Q1073 1025 1090 1036.5T1127 1043Q1147 1039 1158.5 1022T1166 985zM644 522H625H578H555V516V496V451V433H574H617H644V439V453V504V522zM932 153Q913 146 909 129L896 143Q904 159 920 166z" />
    <glyph glyph-name="1-vector-alt-1"
      unicode="&#x31;&#x2D;&#x76;&#x65;&#x63;&#x74;&#x6F;&#x72;&#x2D;&#x61;&#x6C;&#x74;"
      horiz-adv-x="1200" d=" M261 775Q266 775 272 777T283 781L294 769Q280 759 261 759Q232 759 212 779T192 828T212 877T261 897Q289 897 309.5 877T330 828Q330 817 327 808T319 791L306 804Q313 814 313 828Q313 850 298 865T261 880T223.5 865T208 828T223.5 790.5T261 775zM319 791Q309 777 294 769L283 781Q299 788 306 804zM261 880Q283 880 298 865T313 828Q313 814 306 804L294 818Q296 824 296 828Q296 842 285.5 852.5T261 863Q246 863 235.5 852.5T225 828Q225 813 235.5 802.5T261 792Q263 792 265 792.5T270 794L283 781Q278 779 272 777T261 775Q239 775 223.5 790.5T208 828T223.5 865T261 880zM270 794Q278 797 285 803T294 818L306 804Q299 788 283 781zM883 155Q894 171 908 178L920 166Q904 159 896 143zM942 67Q920 67 905 82T890 119Q890 131 896 143L909 129Q907 123 907 119Q907 104 917 94T942 84Q956 84 966.5 94T977 119Q977 133 966.5 143.5T942 154Q940 154 937.5 153.5T932 153L920 166Q925 168 930 169.5T942 171Q963 171 978 155.5T993 119Q993 97 978 82T942 67zM942 171Q935 171 930 169.5T920 166L908 178Q923 187 942 187Q971 187 990.5 167.5T1010 119Q1010 91 990.5 70.5T942 50Q914 50 893.5 70.5T873 119Q873 138 883 155L896 143Q890 131 890 119Q890 97 905 82T942 67Q963 67 978 82T993 119Q993 140 978 155.5T942 171zM1166 985Q1164 974 1157 944T1138.5 871.5T1110 777.5T1071.5 672.5T1023 567T963.5 471.5T893 396.5T811 352Q778 343 749 344L908 178Q894 171 883 155L691 355Q671 362 651.5 373.5T612 400H522V480Q501 495 483.5 502T453 510.5T430.5 510T416 507Q373 494 333 445T258.5 327T196 179T149 27Q144 7 140 -12L132 -50Q128 -67 114 -78.5T83 -90Q76 -90 73 -89Q53 -84 41 -67T34 -30Q36 -19 43 11T61.5 83.5T90 177.5T128.5 282.5T177 388T236.5 483.5T307 558.5T389 603Q403 608 417.5 609.5T446 611L294 769Q309 777 319 791L501 602Q523 595 544.5 583.5T588 555H678V475Q699 460 716 453T746.5 444.5T769 444.5T783 447Q826 460 866.5 509.5T941.5 628T1003.5 776T1050 928Q1055 948 1059 967T1068 1005Q1073 1025 1090 1036.5T1127 1043Q1147 1039 1158.5 1022T1166 985zM644 522H625H578H555V516V496V451V433H574H617H644V439V453V504V522zM932 153Q913 146 909 129L896 143Q904 159 920 166z" />
    <glyph glyph-name="1-vector"
      unicode="&#xF136;"
      horiz-adv-x="1202" d=" M1154 1034V-69H1023H952H889H818H756H685H624H552H490H419H51V1034H1154zM122 2H283Q283 47 288 115T311.5 261.5T365 423T460 581Q502 635 555.5 673.5T667 738.5T784.5 780.5T899 804T1001.5 814.5T1083 817V963H122V2zM419 2V363Q398 310 385 258T365.5 159T356.5 71.5T354 2H419zM552 2V578Q542 567 533 558T516 538Q509 528 502.5 519T490 501V2H552zM685 2V668Q669 660 654 652T624 633V2H685zM818 2V715Q803 711 787.5 706.5T756 697V2H818zM952 2V738Q937 736 921.5 734T889 730V2H952zM1083 2V746Q1070 746 1055 745.5T1023 745V2H1083z" />
    <glyph glyph-name="1-vector-1"
      unicode="&#x31;&#x2D;&#x76;&#x65;&#x63;&#x74;&#x6F;&#x72;"
      horiz-adv-x="1202" d=" M1154 1034V-69H1023H952H889H818H756H685H624H552H490H419H51V1034H1154zM122 2H283Q283 47 288 115T311.5 261.5T365 423T460 581Q502 635 555.5 673.5T667 738.5T784.5 780.5T899 804T1001.5 814.5T1083 817V963H122V2zM419 2V363Q398 310 385 258T365.5 159T356.5 71.5T354 2H419zM552 2V578Q542 567 533 558T516 538Q509 528 502.5 519T490 501V2H552zM685 2V668Q669 660 654 652T624 633V2H685zM818 2V715Q803 711 787.5 706.5T756 697V2H818zM952 2V738Q937 736 921.5 734T889 730V2H952zM1083 2V746Q1070 746 1055 745.5T1023 745V2H1083z" />
    <glyph glyph-name="3d"
      unicode="&#xF137;"
      horiz-adv-x="1200" d=" M233 848Q334 848 396 783Q447 730 447 663Q447 568 343 512Q405 498 442 452T479 341Q479 246 409.5 179T237 112Q139 112 75 168Q10 225 0 315L134 332Q140 281 168 253.5T236 226Q279 226 308 259Q337 291 337 346Q337 399 309 429.5T241 460Q214 460 178 449L193 562Q249 560 278 586Q308 612 308 655Q308 691 286.5 713T229 735T168 710T138 638L10 660Q24 725 50 764Q77 803 125 825Q173 848 233 848zM596 845H862Q952 845 999 831Q1062 813 1107.5 765T1176 648Q1200 579 1200 478Q1200 389 1178 324Q1151 246 1101 197Q1063 160 998 139Q950 124 870 124H596V845zM741 723V246H850Q911 246 938 253Q973 261 996 283Q1020 304 1035 352Q1050 401 1050 484.5T1035 612.5T993.5 682T926 716Q896 723 807 723H741z" />
    <glyph glyph-name="3d-1"
      unicode="&#x33;&#x64;"
      horiz-adv-x="1200" d=" M233 848Q334 848 396 783Q447 730 447 663Q447 568 343 512Q405 498 442 452T479 341Q479 246 409.5 179T237 112Q139 112 75 168Q10 225 0 315L134 332Q140 281 168 253.5T236 226Q279 226 308 259Q337 291 337 346Q337 399 309 429.5T241 460Q214 460 178 449L193 562Q249 560 278 586Q308 612 308 655Q308 691 286.5 713T229 735T168 710T138 638L10 660Q24 725 50 764Q77 803 125 825Q173 848 233 848zM596 845H862Q952 845 999 831Q1062 813 1107.5 765T1176 648Q1200 579 1200 478Q1200 389 1178 324Q1151 246 1101 197Q1063 160 998 139Q950 124 870 124H596V845zM741 723V246H850Q911 246 938 253Q973 261 996 283Q1020 304 1035 352Q1050 401 1050 484.5T1035 612.5T993.5 682T926 716Q896 723 807 723H741z" />
    <glyph glyph-name="add-dashboard"
      unicode="&#xF138;"
      horiz-adv-x="1200" d=" M950 1080Q967 1080 979 1068T991 1040V870H1160Q1176 870 1188 859T1200 830.5T1188 801T1160 789H991V620Q991 603 979 591.5T950 580T920.5 591.5T908 620V789H741Q724 789 712 801T700 830.5T712 859T741 870H908V1040Q908 1056 920.5 1068T950 1080zM401 680Q565 680 683 562T801 280Q801 185 756 102Q708 1 612.5 -59.5T401.5 -120T190 -59.5T46 102Q0 185 0 280Q0 444 118.5 562T401 680zM400.5 627Q258 627 156 525T54 280Q54 187 102 102H699Q747 187 747 280Q747 423 645 525T400.5 627zM313 575Q347 575 347 539.5T313 504Q299 504 288.5 514T278 539Q278 553 288.5 564T313 575zM487 575Q523 575 523 539Q523 524 512.5 514T487 504Q473 504 462.5 514T452 539Q452 553 462.5 564T487 575zM582 533L513 343L452 164Q452 160 447 150Q438 132 417 125T378 126Q359 138 352 159.5T354 199Q354 201 356.5 203T361 207L467 365zM177 467Q191 467 201 456.5T211 430Q211 416 201 405.5T177 395Q160 395 150.5 405.5T141 430Q141 467 177 467zM627 467Q641 467 651 456.5T661 432Q661 398 626 398T591 432.5T627 467zM666 319Q684 319 693.5 309T703 284Q703 250 666 250Q631 250 631 284Q631 299 642 309T666 319zM131 314Q164 314 164 279.5T131 245Q117 245 106 255.5T95 280T106 304T131 314z" />
    <glyph glyph-name="add-dashboard-1"
      unicode="&#x61;&#x64;&#x64;&#x2D;&#x64;&#x61;&#x73;&#x68;&#x62;&#x6F;&#x61;&#x72;&#x64;"
      horiz-adv-x="1200" d=" M950 1080Q967 1080 979 1068T991 1040V870H1160Q1176 870 1188 859T1200 830.5T1188 801T1160 789H991V620Q991 603 979 591.5T950 580T920.5 591.5T908 620V789H741Q724 789 712 801T700 830.5T712 859T741 870H908V1040Q908 1056 920.5 1068T950 1080zM401 680Q565 680 683 562T801 280Q801 185 756 102Q708 1 612.5 -59.5T401.5 -120T190 -59.5T46 102Q0 185 0 280Q0 444 118.5 562T401 680zM400.5 627Q258 627 156 525T54 280Q54 187 102 102H699Q747 187 747 280Q747 423 645 525T400.5 627zM313 575Q347 575 347 539.5T313 504Q299 504 288.5 514T278 539Q278 553 288.5 564T313 575zM487 575Q523 575 523 539Q523 524 512.5 514T487 504Q473 504 462.5 514T452 539Q452 553 462.5 564T487 575zM582 533L513 343L452 164Q452 160 447 150Q438 132 417 125T378 126Q359 138 352 159.5T354 199Q354 201 356.5 203T361 207L467 365zM177 467Q191 467 201 456.5T211 430Q211 416 201 405.5T177 395Q160 395 150.5 405.5T141 430Q141 467 177 467zM627 467Q641 467 651 456.5T661 432Q661 398 626 398T591 432.5T627 467zM666 319Q684 319 693.5 309T703 284Q703 250 666 250Q631 250 631 284Q631 299 642 309T666 319zM131 314Q164 314 164 279.5T131 245Q117 245 106 255.5T95 280T106 304T131 314z" />
    <glyph glyph-name="add-folder"
      unicode="&#xF139;"
      horiz-adv-x="1200" d=" M950 1080Q967 1080 979 1068T991 1040V870H1160Q1176 870 1188 859T1200 830.5T1188 801T1160 789H991V620Q991 603 979 591.5T950 580T920.5 591.5T908 620V789H741Q724 789 712 801T700 830.5T712 859T741 870H908V1040Q908 1056 920.5 1068T950 1080zM36 634H42H292Q325 634 335 606Q337 600 337 593.5T338 581T340 570T344 560Q355 542 378 542Q381 540 383.5 539.5T387 539H897Q910 539 919.5 535.5T936 520Q938 516 940 511.5T942 500Q944 489 943 479T942 460V455H228Q198 455 176.5 436.5T151 391L0 30V595Q0 610 9.5 620.5T36 634zM254 350H958H1100L901 -117L899 -120H55L253 348z" />
    <glyph glyph-name="add-folder-1"
      unicode="&#x61;&#x64;&#x64;&#x2D;&#x66;&#x6F;&#x6C;&#x64;&#x65;&#x72;"
      horiz-adv-x="1200" d=" M950 1080Q967 1080 979 1068T991 1040V870H1160Q1176 870 1188 859T1200 830.5T1188 801T1160 789H991V620Q991 603 979 591.5T950 580T920.5 591.5T908 620V789H741Q724 789 712 801T700 830.5T712 859T741 870H908V1040Q908 1056 920.5 1068T950 1080zM36 634H42H292Q325 634 335 606Q337 600 337 593.5T338 581T340 570T344 560Q355 542 378 542Q381 540 383.5 539.5T387 539H897Q910 539 919.5 535.5T936 520Q938 516 940 511.5T942 500Q944 489 943 479T942 460V455H228Q198 455 176.5 436.5T151 391L0 30V595Q0 610 9.5 620.5T36 634zM254 350H958H1100L901 -117L899 -120H55L253 348z" />
    <glyph glyph-name="add-geostory"
      unicode="&#xF13A;"
      horiz-adv-x="1200" d=" M950 1080C938.66667 1080 928.83333 1076 920.5 1068C912.16667 1060 908 1050.6667 908 1040L908 870L741 870C729.66667 870 720 866.3333299999999 712 859C704 851.6666700000001 700 842.1666700000001 700 830.5C700 818.8333299999999 704 809 712 801C720 793 729.66667 789 741 789L908 789L908 620C908 608.66667 912.16667 599.16667 920.5 591.5C928.83333 583.83333 938.66667 580 950 580C961.33333 580 971 583.83333 979 591.5C987 599.16667 991 608.66667 991 620L991 789L1160 789C1170.6667 789 1180 793 1188 801C1196 809 1200 818.8333299999999 1200 830.5C1200 842.1666700000001 1196 851.6666700000001 1188 859C1180 866.3333299999999 1170.6667 870 1160 870L991 870L991 1040C991 1050.6667 987 1060 979 1068C971 1076 961.33333 1080 950 1080zM218.92969 680C183.11709 680 160.13275 673.86226 134.21875 656.85938C109.53805 635.00342 97.845253 613.31535 96.564453 582.14844C96.056753 586.03388 95.789063 589.73211 95.789062 593.22266L95.789062 554.35352L95.789062 -32.3965000000001L100.74805 -55.5371C102.40095 -67.6584 113.55755 -81.4323999999999 134.21875 -96.8594C154.87995 -112.2864 183.11699 -120 218.92969 -120L693.21094 -120L693.21094 467.57617L693.21094 505.5918L693.21094 506.44727L673.7207 506.44727L673.7207 641.98242L693.21094 641.98242L693.21094 680L673.7207 680L650.8418 680L218.92969 680zM650.8418 641.98242L650.8418 506.44727L218.92969 506.44727C207.25959 506.44727 196.39909 507.27003 186.33789 508.9082C174.09159 511.88954 162.38028 516.79342 151.95898 524.16211C136.50128 532.33418 126.84932 568.93628 135.04492 594.60742C151.22722 632.37127 168.48082 639.44632 211.79492 641.97656L650.8418 641.98242zM138.76367 478.17578C151.71957 472.61352 165.35747 468.65572 179.26367 466.3418C336.19142 460.49084 493.24948 464.58793 650.23633 463.61914L650.23633 -77.0311999999999C513.14366 -77.171 376.0512 -76.6422 238.95898 -77.1699000000001C212.54188 -78.2137 183.95538 -77.7329999999999 161.01758 -63.1113C148.08238 -56.7487000000001 139.15217 -43.2428 138.76367 -28.7754L138.76367 478.17578zM217.11719 404.11914L217.11719 363.1484400000001L588.22656 363.1484400000001L588.22656 404.11914L217.11719 404.11914zM217.11719 330.3046900000001L217.11719 289.33398L500.56836 289.33398L500.56836 330.3046900000001L217.11719 330.3046900000001zM394.5 246.7207C374.8042 246.7207 355.87275 242.81431 337.70508 235.00391C319.7071900000001 227.1935 304.12951 216.70766 290.9707 203.54883C277.8118 190.39 267.3260200000001 174.7702999999999 259.51562 156.6875C251.70522 138.6047000000001 247.80078 119.7153000000001 247.80078 100.0195000000001C247.80078 80.3236999999999 251.70522 61.4344000000001 259.51562 43.3516C267.3260200000001 25.2688000000001 277.8118 9.6489999999999 290.9707 -3.5098C304.12951 -16.6686 319.74924 -27.1543999999999 337.83203 -34.9648C355.91481 -42.7753 374.8042 -46.6796999999999 394.5 -46.6796999999999C414.1958 -46.6796999999999 433.08519 -42.7753 451.16797 -34.9648C469.25076 -27.1543999999999 484.87047 -16.6686 498.0293 -3.5098C511.18813 9.6489999999999 521.67398 25.2688000000001 529.48438 43.3516C537.29477 61.4344000000001 541.19922 80.3236999999999 541.19922 100.0195000000001C541.19922 119.7153000000001 537.29477 138.6047000000001 529.48438 156.6875C521.67398 174.7702999999999 511.18813 190.39 498.0293 203.54883C484.87047 216.70766 469.25076 227.1935 451.16797 235.00391C433.08519 242.81431 414.1958 246.7207 394.5 246.7207zM401.37695 227.61914C404.60299 226.93998 407.74259 226.93998 410.79883 227.61914C413.00612 225.7514300000001 416.48804 224.05351 421.24219 222.52539C425.99635 220.99726 430.24115 219.7238200000001 433.97656 218.70508C437.71198 217.68632 440.8095 215.64804 443.27148 212.5918C445.73346 209.53555 446.54232 205.63111 445.69336 200.87695L442.63477 199.6035000000001C440.76707 198.9243 437.49935 198.7121 432.83008 198.9668C428.16082 199.2215 423.19517 200.45092 417.93164 202.6582C418.44101 202.4884100000001 418.82149 202.10794 419.07617 201.5136700000001C419.33087 200.9194 419.41692 200.11054 419.33203 199.0918C419.2471300000001 198.073 419.12097 197.184 418.95117 196.4199C418.78138 195.6559 418.52513 194.6788 418.18555 193.4902C417.84597 192.3017 417.67773 191.621 417.67773 191.4512C419.54544 190.4324 423.23764 188.4822 428.75586 185.5957C434.2740800000001 182.7092 438.43477 180.4147000000001 441.23633 178.7168C444.03789 177.0189 447.22149 174.5160000000001 450.78711 171.2050999999999C454.35273 167.8941 456.98373 164.2861 458.68164 160.3809000000001C457.15352 158.5132000000001 455.41158 157.1957 453.45898 156.4315999999999C451.50638 155.6676 449.8084600000001 155.2871 448.36523 155.2871C446.9220000000001 155.2871 444.84362 155.4151999999999 442.12695 155.6699000000001C439.41029 155.9246000000001 437.37201 156.0508 436.01367 156.0508C433.29701 152.9945 432.44805 149.9371000000001 433.4668 146.8809000000001C429.73139 145.1829 426.84413 143.2747 424.80664 141.1523C422.76914 139.0299 421.4556 137.1198 420.86133 135.4219000000001C420.26706 133.7239999999999 419.58633 131.0909999999999 418.82227 127.5254C418.05821 123.9598000000001 417.16719 120.9884 416.14844 118.6113C415.4692800000001 116.404 414.15377 114.3255999999999 412.20117 112.3730000000001C410.24857 110.4204 408.71887 108.5102999999999 407.61523 106.6425999999999C406.51158 104.7748999999999 406.21524 102.3121000000001 406.72461 99.2559000000001C407.23399 96.5391999999999 407.278 93.8221000000001 406.85352 91.1054999999999C406.42904 88.3888 405.7483 85.4594999999999 404.81445 82.3184000000001C403.8806 79.1772000000001 403.24389 76.5882999999999 402.9043 74.5508L401.63086 75.3145C400.6121 75.9936 399.29661 76.8866000000001 397.68359 77.9902C396.07057 79.0938000000001 394.37265 80.3672999999999 392.58984 81.8105000000001C390.80703 83.2538 388.98294 84.9937 387.11523 87.0311999999999C385.24752 89.0687 383.71784 91.1051 382.5293 93.1425999999999C381.51055 94.8405 379.8566400000001 95.9878000000001 377.56445 96.5820000000001C375.27227 97.1763000000001 372.42707 97.5147 369.03125 97.5996C365.63541 97.6845000000001 363.42694 97.8126 362.4082 97.9824000000001C359.69154 96.9637 357.8253900000001 95.0954999999999 356.80664 92.3788999999999C354.93894 87.2852 355.61772 82.3616 358.84375 77.6074000000001C362.06979 72.6833999999999 365.63581 72.3431000000001 369.54102 76.5879C372.59726 79.9838 375.22826 81.7678000000001 377.43555 81.9375C379.64283 82.1072999999999 381.21262 81.1302000000001 382.14648 79.0078000000001C383.08033 76.8853999999999 383.67695 74.5087000000001 383.93164 71.877C384.18633 69.2452000000001 384.22642 66.6561999999999 384.05664 64.1094000000001C384.7358 63.7698 386.81811 63.2172000000001 390.29883 62.4531C393.77955 61.6891000000001 396.02812 60.2034000000001 397.04688 57.9961000000001C397.04688 57.8263999999999 397.00481 55.6618000000001 396.91992 51.502C396.83502 47.3420000000001 397.13138 45.1776 397.81055 45.0078000000001C400.35742 41.1025999999999 405.95978 42.1216999999999 414.61914 48.0645C417.3358 49.9322 420.56342 51.3317999999999 424.29883 52.2656C428.03425 53.1994999999999 431.5983100000001 53.7520999999999 434.99414 53.9219000000001C438.38996 54.0916999999999 442.04207 54.2177999999999 445.94727 54.3027C449.85247 54.3876 453.33243 54.4315999999999 456.38867 54.4315999999999C459.27513 52.5639000000001 463.64806 50.9501 469.50586 49.5917999999999C475.36367 48.2335000000001 479.56447 46.9601 482.11133 45.7715000000001C484.14883 44.5830000000001 487.20625 43.9463000000001 491.28125 43.8613C495.35623 43.7764999999999 498.49779 43.0555999999999 500.70508 41.6973C500.19571 36.2638999999999 498.41172 30.9139 495.35547 25.6504C492.29923 20.3869 489.36992 16.2281 486.56836 13.1719000000001C483.7668 10.1156000000001 479.82031 6.1251 474.72656 1.2012C454.86097 -18.155 436.09775 -27.6638 418.43945 -27.3242C417.59049 -25.2867000000001 417.16602 -23.8431 417.16602 -22.9940999999999C417.16602 -22.1451999999999 417.46431 -20.9558999999999 418.05859 -19.4277C418.65286 -17.8996 418.95117 -16.5419999999999 418.95117 -15.3534999999999C415.72514 -14.6744000000001 412.62565 -13.1466 409.6543 -10.7695000000001C406.68295 -8.3924999999999 404.3483100000001 -6.0578 402.65039 -3.7655999999999C400.95248 -1.4735000000001 398.99831 1.4558999999999 396.79102 5.0215000000001C396.28165 7.9079999999999 397.0905 11.1335999999999 399.21289 14.6992C401.33529 18.2648999999999 403.24545 21.6606999999999 404.94336 24.8867C406.64128 28.1126999999999 406.89362 31 405.70508 33.5469000000001C400.78113 32.8677 395.89961 33.8008 391.06055 36.3477C386.2215 38.8945000000001 381.12773 42.1202000000001 375.7793 46.0254C370.4308700000001 49.9305999999999 365.97382 52.6477 362.4082 54.1758C360.54049 54.8549 357.61315 55.8741 353.62305 57.2324000000001C349.63295 58.5907 346.19309 59.8642 343.30664 61.0527C340.42018 62.2412999999999 337.6209600000001 63.5147 334.9043 64.8730000000001C333.71576 65.5522000000001 332.05795 66.7415000000001 329.93555 68.4395C327.81316 70.1374000000001 325.81888 71.4108000000001 323.95117 72.2598C322.08347 73.1087 320.13125 73.5332000000001 318.09375 73.5332000000001C318.26354 77.6081999999999 316.90598 82.6578999999999 314.01953 88.6855000000001C311.13307 94.7130999999999 309.68945 98.4914000000001 309.68945 100.0195000000001C310.7082 104.7737 310.02942 112.1600000000001 307.65234 122.1777C305.27526 132.1954000000001 304.85078 140.0904000000001 306.37891 145.8633C307.22786 149.5987 309.73269 156.3043 313.89258 165.9824000000001C318.0524700000001 175.6605 320.3871 183.3873 320.89648 189.1602C321.06627 190.3487 320.34349 191.9204 318.7304700000001 193.8730000000001C317.11745 195.8256 316.5667900000001 197.7358000000001 317.07617 199.6035000000001C317.58555 202.1503800000001 320.51291 205.07774 325.86133 208.3886700000001C331.20977 211.6996 335.58269 213.95013 338.97852 215.1386700000001C341.52539 215.98762 345.38778 216.15586 350.56641 215.64648C355.74505 215.13711 359.60743 215.13711 362.1543 215.64648C363.85221 215.9860700000001 367.1639400000001 216.5386600000001 372.08789 217.30273C377.01185 218.06679 380.6619800000001 218.74753 383.03906 219.3418C385.41614 219.93607 388.42957 220.95326 392.08008 222.39648C395.7306 223.83971 398.83009 225.58164 401.37695 227.61914zM397.81055 200.36523C396.45222 199.6861 395.05064 198.6249 393.60742 197.1816C392.16419 195.7384 391.01887 194.509 390.16992 193.4902C389.32096 192.4715 388.13164 191.9629 386.60352 191.9629C385.0753900000001 191.9629 383.46353 192.8119 381.76562 194.5098000000001C381.25624 193.3212 379.89673 191.1548 377.68945 188.0137C375.48216 184.8725 374.1246 182.3697 373.61523 180.502C376.33189 178.6343000000001 379.47345 177.2327 383.03906 176.2988C386.60468 175.365 391.06173 174.5160000000001 396.41016 173.752C401.75858 172.9879000000001 405.11236 172.5193999999999 406.4707 172.3496C406.4707 172.8589999999999 405.70585 174.8132000000001 404.17773 178.209C402.64961 181.6048 401.20795 185.4251000000001 399.84961 189.6699C398.49128 193.9147000000001 397.81055 197.4788 397.81055 200.36523z" />
    </font>
</defs>
</svg>
